Pink Floyd 1972.06.28 Eclipsed By The Dome (Godfather 481/482)

Pink Floyd
Eclipsed By The Dome
Godfather GR 481/482

1972.06.28
The Dome
Brighton, England

Audience recording

Original bootleg discs -> EZ CD Audio Converter -> FLAC level 5
Ripped and shared by Gullveig.org

101 Speak To Me
102 Breathe
103 On The Run
104 Time
105 Breathe (Reprise)
106 The Great Gig In The Sky
107 Money
108 Us And Them
109 Any Colour You Like
110 Brain Damage
111 Eclipse
201 Tuning
202 One Of These Days
203 Careful With That Axe, Eugene
204 Echoes
205 Set The Controls For The Heart Of The Sun

Bonus track:
1972.01.28
Town Hall
Leeds, England
20 Blues

Download from FileFactory: https://www.filefactory.com/file/7cx1xs6vlxsy/gph0336.rar

Download from mega.nz: https://mega.nz/file/IRJnFCSK#30ygXxZOCKXuFS6Wa1X1a9bLFAwehVd5yuzxBzQhAiM

Date prepared: 2022.12.27

101 Speak To Me.flac:5438ae427cf74a7cb493ca9c329c2088
102 Breathe.flac:fc3fa21f5cd457e90fdf0244e4828a45
103 On The Run.flac:c7a2ca95d514446bddb8b127837ba106
104 Time.flac:b9690ac9111179d4d0cc78b5ed9c800a
105 Breathe (Reprise).flac:beeac85c6ff2f4fb42f39dc4d3216ecd
106 The Great Gig In The Sky.flac:a0297e3516c4f71b7beaefbe6a459e05
107 Money.flac:4a83075f61cce4a48d6b318fa5b8eac8
108 Us And Them.flac:093d368f9858d4ed83333a272b5ff663
109 Any Colour You Like.flac:238315bc3ad66454c3cb3c03784c199c
110 Brain Damage.flac:b56f7416a000d2e53e01b56f61f0b07a
111 Eclipse.flac:07c485fdb1504593308701d887a18890
201 Tuning.flac:24d7f85f35cc000b3730409c0b8254ee
202 One Of These Days.flac:af31d75007dfb0d502b63f1b19568e83
203 Careful With That Axe, Eugene.flac:772422641266e5e31f8bf208a41c8181
204 Echoes.flac:576408409163656b6a913de1dde808b1
205 Set The Controls For The Heart Of The Sun.flac:a8a280ad1a6ff1428ddd15237009332e
206 Blues.flac:0d4dd44917c2e87225beb069cc455506

12d7d4cc427fb0011618bfcc4429f59c *101 Speak To Me.flac
b613509159c1dc33a1247925a60d122a *102 Breathe.flac
f1e0be3c8a18189c140d2c30cf2add31 *103 On The Run.flac
e7544d0fd0b99fc4cd61b714db6a71ae *104 Time.flac
5df7f78878a690d12459251c424c5074 *105 Breathe (Reprise).flac
6839ad272c5a55cccbd79b4c58cd23d8 *106 The Great Gig In The Sky.flac
403dea5d12b02eafd21289195edaad78 *107 Money.flac
aa5efc35708c1a6aaccdaf73fa6c7fcc *108 Us And Them.flac
29746c2a41f245f70dee8af3956a1b81 *109 Any Colour You Like.flac
e38e8d54e90e73d8b12ba4043c536740 *110 Brain Damage.flac
f326f8f85068e41f220c3c032dadda57 *111 Eclipse.flac
ae25a8ad7a43a935dcec2171316005d0 *201 Tuning.flac
c1fc312e7c8dd06751d6050edfa16958 *202 One Of These Days.flac
553ad998423c643173e8066c4583ca3c *203 Careful With That Axe, Eugene.flac
03d93376b7fdb75417621df6b9a1872d *204 Echoes.flac
d40b75ba28dfc579bc55aeae06a6d752 *205 Set The Controls For The Heart Of The Sun.flac
1844ff8be87a258d8a0647638a9ed586 *206 Blues.flac

length     expanded size    cdr  WAVE problems  fmt   ratio  filename
 1:53.68       20093180 B   ---   --   ---xx   flac  0.4768  101 Speak To Me.flac
 2:45.59       29244812 B   ---   --   ---xx   flac  0.5669  102 Breathe.flac
 4:09.67       44081228 B   ---   --   ---xx   flac  0.5751  103 On The Run.flac
 6:15.41       66246476 B   ---   --   ---xx   flac  0.5618  104 Time.flac
 1:00.57       10718108 B   ---   --   ---xx   flac  0.5514  105 Breathe (Reprise).flac
 3:45.03       39697100 B   ---   --   ---xx   flac  0.5615  106 The Great Gig In The Sky.flac
 6:41.23       70790540 B   ---   --   ---xx   flac  0.5782  107 Money.flac
 7:46.50       82320044 B   ---   --   ---xx   flac  0.5691  108 Us And Them.flac
 4:33.15       48192524 B   ---   --   ---xx   flac  0.5692  109 Any Colour You Like.flac
 3:44.71       39680636 B   ---   --   ---xx   flac  0.5682  110 Brain Damage.flac
 1:42.69       18155132 B   ---   --   ---xx   flac  0.5842  111 Eclipse.flac
 2:47.08       29477660 B   ---   --   ---xx   flac  0.5584  201 Tuning.flac
 7:36.35       80520764 B   ---   --   ---xx   flac  0.5533  202 One Of These Days.flac
10:06.69      107060732 B   ---   --   ---xx   flac  0.5677  203 Careful With That Axe, Eugene.flac
26:47.30      283545404 B   ---   --   ---xx   flac  0.5516  204 Echoes.flac
11:44.21      124235036 B   ---   --   ---xx   flac  0.5046  205 Set The Controls For The Heart Of The Sun.flac
 8:56.49       94665692 B   ---   --   ---xx   flac  0.5583  206 Blues.flac

112:18.60 1188725068 B 0.5544 (17 files)

7 thoughts on “Pink Floyd 1972.06.28 Eclipsed By The Dome (Godfather 481/482)

Leave a Reply

Fill in your details below or click an icon to log in:

WordPress.com Logo

You are commenting using your WordPress.com account. Log Out /  Change )

Twitter picture

You are commenting using your Twitter account. Log Out /  Change )

Facebook photo

You are commenting using your Facebook account. Log Out /  Change )

Connecting to %s