Nick Mason’s Saucerful Of Secrets 2022.09.26 Port Chester 2022 (Amity 701)

Nick Mason’s Saucerful Of Secrets
Port Chester 2022
Amity 701

2022.09.26
Capitol Theatre
Port Chester, NY

Audience recording

Original bootleg discs -> EZ CD Audio Converter -> FLAC level 5
Ripped and shared by Gullveig.org

101 Intro
102 One Of These Days
103 Arnold Layne
104 Fearless
105 Obscured By Clouds
106 When You’re In
107 Candy And A Currant Bun
108 Vegetable Man
109 If
110 Atom Heart Mother
111 If
112 Remember A Day
113 Set The Controls For The Heart Of The Sun
201 Intro
202 Astronomy Domine
203 The Nile Song
204 Burning Bridges
205 Childhood’s End
206 Lucifer Sam
207 Echoes
208 See Emily Play
209 A Saucerful Of Secrets
210 Bike

Download from FileFactory: https://www.filefactory.com/file/6u120bflzyb6/gph0339.rar

Download from mega.nz: https://mega.nz/file/8J4FkAzR#WYIudItR5kUTDHQftP5n-dwddYU10khV4xNB6FOGMoU

Date prepared: 2023.03.27

101 Intro.flac:01c2eb090d17dd831c8920ee32bd6b73
102 One Of These Days.flac:69e707557a481addf4e830a50cf7bad5
103 Arnold Layne.flac:c3cc5312acb53860110363ad3ff8eaeb
104 Fearless.flac:7b2828e86ff8cc7992bcd19df13bed4f
105 Obscured By Clouds.flac:d236d289e875859fa3e36875f0a0d73c
106 When You’re In.flac:3877a96cd1afb97e0a1e450325cb4724
107 Candy And A Currant Bun.flac:9a8d40e44f94fc0928ecbe9e5c31891d
108 Vegetable Man.flac:244bc08c8de9e99babdeca113b3d5217
109 If.flac:92bb41d74b60b6f3713476f0637ca6dd
110 Atom Heart Mother.flac:b74233050d5543d60535929f393a71e5
111 If.flac:aaa7c85fe0671fd112d9ce7aef5bb5bc
112 Remember A Day.flac:9d52fd6f548364871db4bf33175a6661
113 Set The Controls For The Heart Of The Sun.flac:6fb770d6eafbc7f91ffa0b4da0b9e1ab
201 Intro.flac:d1b475c850260af9505347b88025acf2
202 Astronomy Domine.flac:c4bb84bc92c7fc64b88acdf2d3885892
203 The Nile Song.flac:f605f89c61a02dc714df45ad87bb6fb8
204 Burning Bridges.flac:283fcae118176e568ddbaa9ebd99ad0d
205 Childhood’s End.flac:3b6857c546816b4fc2a57ea6100649aa
206 Lucifer Sam.flac:db36efb1e3fce777bdd5d700c7d8ddae
207 Echoes.flac:3e7d4709356355b174ea12235b1edab7
208 See Emily Play.flac:61c2c8028a971d99929e84fa430de754
209 A Saucerful Of Secrets.flac:f021db3eaa86c8962e70f4f91f3e4aa0
210 Bike.flac:2c645f0ffe90129bf8ba0c9718c2360a

2df3204eb03ec75df48d7b5caddef46e *101 Intro.flac
51410299e5ebdb6285c6e741c2268f05 *102 One Of These Days.flac
03826abfe2e7af49bb54c6f84f2a140c *103 Arnold Layne.flac
2aaabfc67549bdf38b1256190ad7e4cc *104 Fearless.flac
7460465fda572ca819a087b9fce2d3dc *105 Obscured By Clouds.flac
a44781f9e2e4f7948dd43948b1f4122c *106 When You’re In.flac
ac0bd181c512cc130f3701fadf619cbb *107 Candy And A Currant Bun.flac
45201b66f0fadb175239d4a3e5637d57 *108 Vegetable Man.flac
ae2cbb036f2253256badc642ad5b0410 *109 If.flac
5bd05589ebb16c102b8e4ec03429705a *110 Atom Heart Mother.flac
aed2ef821f1149764a1ba71b432298b5 *111 If.flac
46be3226f0dfae0791bf6f5ff3f7d6cb *112 Remember A Day.flac
bd964ece50d5c89ecf74df2ac4c16498 *113 Set The Controls For The Heart Of The Sun.flac
1d76f5e3fa8b82345fd5ff2237b9b5ce *201 Intro.flac
97c3570f764d671b3d17ffb940c8445f *202 Astronomy Domine.flac
186f67d2eb6480b59d5466f1a504ba2d *203 The Nile Song.flac
0cdcd6217793e150de6e1cc8342de896 *204 Burning Bridges.flac
1095d85049c21674e8bb9cea7040540b *205 Childhood’s End.flac
7d59c1b19e457bb708582e98d01402a3 *206 Lucifer Sam.flac
8289b7eddb53159a4de9b96e806671a5 *207 Echoes.flac
ceb5b3e9d61e40d94001a4c1a0f51c98 *208 See Emily Play.flac
c445cb76c22df892093d52ac3a713ee4 *209 A Saucerful Of Secrets.flac
52d806c859b4d9d4f6543f481f9e1294 *210 Bike.flac

length     expanded size    cdr  WAVE problems  fmt   ratio  filename
 1:27.37       15433868 B   ---   --   ---xx   flac  0.4841  101 Intro.flac
 7:25.15       78533324 B   ---   --   ---xx   flac  0.5676  102 One Of These Days.flac
 3:37.60       38419964 B   ---   --   ---xx   flac  0.6170  103 Arnold Layne.flac
 5:17.50       56036444 B   ---   --   ---xx   flac  0.6361  104 Fearless.flac
 4:27.02       47103548 B   ---   --   ---xx   flac  0.5382  105 Obscured By Clouds.flac
 2:03.01       21699596 B   ---   --   ---xx   flac  0.6446  106 When You're In.flac
 2:57.27       31286348 B   ---   --   ---xx   flac  0.6223  107 Candy And A Currant Bun.flac
 4:47.40       50720924 B   ---   --   ---xx   flac  0.5619  108 Vegetable Man.flac
 1:51.06       19594556 B   ---   --   ---xx   flac  0.4827  109 If.flac
 7:33.34       79989212 B   ---   --   ---xx   flac  0.5688  110 Atom Heart Mother.flac
 2:41.18       28442780 B   ---   --   ---xx   flac  0.5234  111 If.flac
 8:19.27       88087148 B   ---   --   ---xx   flac  0.5550  112 Remember A Day.flac
12:43.18      134635580 B   ---   --   ---xx   flac  0.4975  113 Set The Controls For The Heart Of The Sun.flac
 1:04.07       11306108 B   ---   --   ---xx   flac  0.5111  201 Intro.flac
 4:50.18       51198380 B   ---   --   ---xx   flac  0.6194  202 Astronomy Domine.flac
 4:45.58       50410460 B   ---   --   ---xx   flac  0.6151  203 The Nile Song.flac
 3:38.61       38598716 B   ---   --   ---xx   flac  0.5616  204 Burning Bridges.flac
 5:25.23       57384140 B   ---   --   ---xx   flac  0.5796  205 Childhood's End.flac
 3:29.72       37036988 B   ---   --   ---xx   flac  0.6343  206 Lucifer Sam.flac
23:40.49      250603292 B   ---   --   ---xx   flac  0.5560  207 Echoes.flac
 3:25.19       36206732 B   ---   --   ---xx   flac  0.6423  208 See Emily Play.flac
 8:55.55       94503404 B   ---   --   ---xx   flac  0.5561  209 A Saucerful Of Secrets.flac
 2:32.35       26895164 B   ---   --   ---xx   flac  0.5979  210 Bike.flac

126:59.57 1344126676 B 0.5673 (23 files)

3 thoughts on “Nick Mason’s Saucerful Of Secrets 2022.09.26 Port Chester 2022 (Amity 701)

Leave a Reply

Fill in your details below or click an icon to log in:

WordPress.com Logo

You are commenting using your WordPress.com account. Log Out /  Change )

Facebook photo

You are commenting using your Facebook account. Log Out /  Change )

Connecting to %s