Pink Floyd 1972.04.28 Definitive Chicago 1972 (Sigma 306)

Pink Floyd
Definitive Chicago 1972
Sigma 306

1972.04.28
Auditorium Theatre
Chicago, IL

Audience recording

Original bootleg discs -> EZ CD Audio Converter -> FLAC level 5
Ripped and shared by Gullveig.org

The Dark Side Of The Moon
101 Speak To Me
102 Breathe (In The Air)
103 The Travel Sequence
104 Time
105 Breathe (Reprise)
106 The Mortality Sequence
107 Money
108 Us And Them
109 Any Colour You Like
110 Brain Damage
111 Eclipse

201 Tuning
202 One Of These Days
203 Careful With That Axe, Eugene
204 Echoes
205 Set The Controls For The Heart Of The Sun

Download from FileFactory: https://www.filefactory.com/file/4i6um97581mu/gph0350.rar

Download from mega.nz: https://mega.nz/file/kYIQWa5J#fNH7D9iUlj3sTXDeEFfwmX4uWvKqSTVWvvO83NaGrGU

Torrent download via magnet uri:
magnet:?xt=urn:btih:c64638014deb7cf6391e444b8e007b7557db02db
[copy this bold text of the magnet uri and paste into your torrent client]

Date prepared: 2023.04.15

101 Speak To Me.flac:b2f78e1b0a7699879ca241bef33834e1
102 Breathe (In The Air).flac:134d8f9f8d046ff1494970df3305d219
103 The Travel Sequence.flac:5fcaa8d1552b7328ccb822d6f7c0fb5d
104 Time.flac:1c23d34ae5642a48ee33f7490bcf47b6
105 Breathe (Reprise).flac:a2bae0967c2d9a1dafdf4cebf65e9c14
106 The Mortality Sequence.flac:578364a07576278e859516e18ca32f9f
107 Money.flac:2f6cd5cfc587d98942c6112a751a9e61
108 Us And Them.flac:62406150db721d3437ffc5af5db4be87
109 Any Colour You Like.flac:1de382d45011d9ceda2b62cd83f031cc
110 Brain Damage.flac:2fb7b3c9e23f2b783df4b331f323c4e4
111 Eclipse.flac:6d5b2c0b889d57b4b94857ace01c5b06
201 Tuning.flac:56cff98178b7be4e0035868b72651e42
202 One Of These Days.flac:e3e29baa81fd58e9451d2df7138c8141
203 Careful With The Axe, Eugene.flac:7fc9f933aabdb5d376cfaa6fa8cdeecb
204 Echoes.flac:616ca45bd71233527e2372e3bbbbceb0
205 Set The Controls For The Heart Of The Sun.flac:78bc85bb6966593d4ea3044ef69aa270

44c2df2787da88d2b38c9c8bcaae0b9b *101 Speak To Me.flac
82af9561f4c3ca85f8973cda4375a073 *102 Breathe (In The Air).flac
c714bc6c66b119fb5df2972ccd113ce9 *103 The Travel Sequence.flac
750b8eda94de80bf88148579c87e2217 *104 Time.flac
f881b1b18aaebd0d9491b450ee855f6a *105 Breathe (Reprise).flac
d9c4dc5d27c8b823f1172d0e2befcbac *106 The Mortality Sequence.flac
27c3093efdf317b01d6fc93a2f60aea5 *107 Money.flac
db231a297c9fae6e978dd1a26b2cd9ea *108 Us And Them.flac
a09a5991ce34906aeeee3e8e5442f8e9 *109 Any Colour You Like.flac
2c25921c856294f589a81d1252053bf5 *110 Brain Damage.flac
d15261d1486e4a79a34704f207d3dd37 *111 Eclipse.flac
d0be7898d233e2dbe2fb84b2c4c6da5f *201 Tuning.flac
da9358a40f0cac692d52c78d20908fb4 *202 One Of These Days.flac
1fcf909d47cc34f6c51220872c11c2d4 *203 Careful With The Axe, Eugene.flac
adb4928ca3499da283750ee32660c8d8 *204 Echoes.flac
c3dc0cc8838705598cfa04ef506d28b7 *205 Set The Controls For The Heart Of The Sun.flac

length     expanded size    cdr  WAVE problems  fmt   ratio  filename
 3:08.45       33269084 B   ---   --   ---xx   flac  0.5653  101 Speak To Me.flac
 3:14.60       34362764 B   ---   --   ---xx   flac  0.6233  102 Breathe (In The Air).flac
 5:15.15       55601324 B   ---   --   ---xx   flac  0.6272  103 The Travel Sequence.flac
 5:47.45       61316684 B   ---   --   ---xx   flac  0.6227  104 Time.flac
 1:03.63       11261420 B   ---   --   ---xx   flac  0.6223  105 Breathe (Reprise).flac
 3:41.51       39104396 B   ---   --   ---xx   flac  0.5917  106 The Mortality Sequence.flac
 7:33.21       79958636 B   ---   --   ---xx   flac  0.6328  107 Money.flac
 7:46.69       82364732 B   ---   --   ---xx   flac  0.6318  108 Us And Them.flac
 6:23.57       67695308 B   ---   --   ---xx   flac  0.6255  109 Any Colour You Like.flac
 3:52.57       41058908 B   ---   --   ---xx   flac  0.6248  110 Brain Damage.flac
 2:05.57       22184108 B   ---   --   ---xx   flac  0.6287  111 Eclipse.flac
 0:48.60        8608364 B   ---   --   ---xx   flac  0.5983  201 Tuning.flac
 7:56.27       84029948 B   ---   --   ---xx   flac  0.6325  202 One Of These Days.flac
12:25.48      131530940 B   ---   --   ---xx   flac  0.6508  203 Careful With The Axe, Eugene.flac
24:17.00      257014844 B   ---   --   ---xx   flac  0.6458  204 Echoes.flac
13:22.30      141543404 B   ---   --   ---xx   flac  0.6086  205 Set The Controls For The Heart Of The Sun.flac

108:44.30 1150904864 B 0.6291 (16 files)

Pink Floyd 1979.xx.xx Wall In Progress 1979 (Sigma 255) [re-post]

Pink Floyd
Wall In Progress 1979
Sigma 255

1979.xx.xx
Britannia Row Studios
London, UK

Original bootleg discs -> EZ CD Audio Converter -> FLAC level 5
Ripped and shared by Gullveig.org

Early 1979 Demo
101 We’ll Meet Again
102 Brick 1 – Reminiscing
103 Thin Ice
104 Goodbye Blue Sky
105 Teacher Teacher
106 Brick 2 – Education
107 Empty Spaces
108 Young Lust
109 Mother
110 Don’t Leave Me Now
111 Sexual Revolution
112 Brick 3 – Drugs
113 Goodbye Cruel World
114 Is There Anybody Out There?
115 Vera
116 Is There Anybody Out There?
117 Bring The Boys Back Home
118 Is There Anybody Out There?
119 Hey You
120 The Doctor
121 Run Like Hell
122 Follow The Worms
123 Trial By Puppet (Prophet Synth Version)
124 It’s Never Too Late
125 Instrumental Theme
126 Thin Ice (Reprise)
127 Comfortably Numb (Original Demo)
128 Run Like Hell (Original Demo)

Late 1979 Demo
201 The Show
202 The Thin Ice
203 Another Brick In The Wall – Reminiscing
204 Happiest Days
205 Another Brick In The Wall – Education
206 Mother
207 Goodbye Blue Sky
208 Empty Spaces
209 Young Lust
210 One Of My Turns
211 Don’t Leave Me Now
212 Backs To The Wall
213 Another Brick In The Wall – Drugs
214 Goodbye Cruel World
215 Is There Anybody Out There?
216 Vera
217 Bring The Boys Back Home
218 Is There Anybody Out There?
219 The Doctor
220 Hey You
221 It’s Never Too Late
222 The Show
223 Run Like Hell
224 Waiting For The Worms
225 Stop
226 Trial By Puppets (Piano Version)
227 Outside The Wall
228 The Doctor (Alternate Take)

Download from FileFactory: https://www.filefactory.com/file/5qbvwbmtqrne/gph0347.rar

Download from mega.nz: https://mega.nz/file/oMA1hSzY#rCcJg3C4s6SIN7Cn47L74FYHXbTZUsnpSyQ_t8uHnFk

Torrent download via magent uri: magnet:?xt=urn:btih:c644202aff9c8bd9f8c45c79444edc8295ca089a&dn=PF%201979.xx.xx%20Wall%20In%20Progress%201979%20(Sigma%20255) [copy this magent uri and paste into your torrent client]

Date prepared: 2020.10.10

101 We’ll Meet Again.flac:5104564d4e033dfedab3f979e5d7a37c
102 Brick 1 – Reminiscing.flac:f1686b1f0001baac012035455345a292
103 Thin Ice.flac:48e2859f67e1123c2f9187fac7617421
104 Goodbye Blue Sky.flac:b5291ab376222e090ba5ec8992c8748f
105 Teacher Teacher.flac:bd25619ed3d0adfb9ce14d6d93e4f5c8
106 Brick 2 – Education.flac:32aa38a6e69e07466813d690974ab90c
107 Empty Spaces.flac:1fc15f63823d09ecb32799081533af72
108 Young Lust.flac:4f177491498ccd7ff41287d8f2e2ac50
109 Mother.flac:10604af75282230d48469883a9245c65
110 Don’t Leave Me Now.flac:8a9ff9d155d592ea655b476a22acc4e4
111 Sexual Revolution.flac:c089b999b246b723d651e1e344e531e1
112 Brick 3 – Drugs.flac:6e0d503e5c88904a81758010358b3b74
113 Goodbye Cruel World.flac:a0b29226001eba2e2fd34b5a81624c48
114 Is There Anybody Out There.flac:5cbdeed7d959129fe1b191be4f03c2ec
115 Vera.flac:571ced23de82d458592c416bfb7e6be2
116 Is There Anybody Out There.flac:db128f72f45f2948c96f1d491fda3cd8
117 Bring The Boys Back Home.flac:bcf9579adb586a4aab825c72c9f41564
118 Is There Anybody Out There.flac:434e00fd938249f716f952f69884309a
119 Hey You.flac:d382d95648e079bdc0727bfff7696bdd
120 The Doctor.flac:464bee829cec7248949af6512e0171a7
121 Run Like Hell.flac:595e5eca7b4d8df65bbd6ffe371b053d
122 Follow The Worms.flac:5018fb06d59b1a6a13ba1cc05e6ff93e
123 Trial By Puppet (Prophet Synth Version).flac:f9c8461ffb4a86c0b4dbf7bc72cbea9d
124 It’s Never Too Late.flac:8b4ecadf6bde3a45414de8d2c01eee90
125 Instrumental Theme.flac:45f71b74cc23f977e5c7376571ee3e43
126 Thin Ice (Reprise).flac:c2e185ce574947f3de1ae78457e2656f
127 Comfortably Numb (Original Demo).flac:ffbd43ca92c04de1c5a5712649f96838
128 Run Like Hell (Original Demo).flac:69c4613c8066d8c71fdc11bd88dcd37b
201 The Show.flac:58412cd122c78d6f579c1cb79e58d217
202 The Thin Ice.flac:fc553c105c1ed9a8bfc1d6ce288b51aa
203 Another Brick In The Wall – Reminiscing.flac:3da4f87d7d339a231bb4cc85da658e8b
204 Happiest Days.flac:9033cdcc76ca5007d7f78e263e4cbaa6
205 Another Brick In The Wall – Education.flac:995ee941cc59b00594775b770c77694e
206 Mother.flac:c863061a110c7def3970ccaa1fa85015
207 Goodbye Blue Sky.flac:38b2aefc4ce1981ca1de93395fca4a79
208 Empty Spaces.flac:c74129ec8a94ae42083b72d239f93de4
209 Young Lust.flac:f110de176412b6e472cc53ef0546d3c9
210 One Of My Turns.flac:b7f512dc34068e938a85db3757412fae
211 Don’t Leave Me Now.flac:2bed40c4163395214b885b00699d6565
212 Backs To The Wall.flac:4c34fd3f10f3f95bf4a003776db2a84b
213 Another Brick In The Wall – Drugs.flac:a3e9cb93a45a5e0ee35931417aa80b76
214 Goodbye Cruel World.flac:c199bebc71ffc1c3b0ac8e8202f600c8
215 Is There Anybody Out There.flac:ce44310a9c54b928ff1fbe1746b10dc1
216 Vera.flac:0127fac0ab122b39e14fff1a075097b7
217 Bring The Boys Back Home.flac:7e7290181b5e5c58a0243f4ff1e32fb0
218 Is There Anybody Out There.flac:ec011cd0178d600e30284ec3d90b15be
219 The Doctor.flac:5e7c557c135dea519a85434ef5fd479b
220 Hey You.flac:49c1dcb5ea414d9fe40336b58d045fa9
221 It’s Never Too Late.flac:c9365c0a445bf390a0168f87dfc48760
222 The Show.flac:86018292d2f549b356be9578d0aa1730
223 Run Like Hell.flac:3ebfebff8583d2a84816225737f0143b
224 Waiting For The Worms.flac:bffb3266771af95324fc2d92d1d414f1
225 Stop.flac:e4528a61b5a8fc8ccd152739bb4ef2b3
226 Trial By Puppets (Piano Version).flac:23e436333b3ad42fad1a022d9a9d0f86
227 Outside The Wall.flac:99cb5d77809b45d2ff0ce7d40f1dd371
228 The Doctor (Alternate Take).flac:5c75f230e118cff8619ea9b8d7b1f1ee

38e3271ad6db7a323df02296511d04b6 *101 We’ll Meet Again.flac
9939d0330569ebd7bab627d07ac284c1 *102 Brick 1 – Reminiscing.flac
7b082337e47393b28ab3a1675f24c4af *103 Thin Ice.flac
205a82666e475d8a97db03702ea2cfaf *104 Goodbye Blue Sky.flac
c7ac24ded182bca31fbf6c1220022dd1 *105 Teacher Teacher.flac
8450ec1f98fc255a029869010066c53c *106 Brick 2 – Education.flac
b2bcbd2b7964556df8261570b6b12355 *107 Empty Spaces.flac
b235610f8e09723b32ec5baa142e0b16 *108 Young Lust.flac
0bb6446edb82d970e0eafa62d782b664 *109 Mother.flac
9739987157cb40c326dd5407215da0bd *110 Don’t Leave Me Now.flac
5d984a1df90e87020c86ffee1a61c489 *111 Sexual Revolution.flac
f7e43ad909e1fc43324b897c194623a6 *112 Brick 3 – Drugs.flac
39b205423ec99873514a9b9d9dd0d989 *113 Goodbye Cruel World.flac
90d521bd9e32313bbe64c8a2bc2cd6f6 *114 Is There Anybody Out There.flac
76a7f8707b4bdf259d20aa59a3939778 *115 Vera.flac
2e751254603f089b4730e6dd9c822a23 *116 Is There Anybody Out There.flac
afb9f5c15bd746a5ed334e6369811c4d *117 Bring The Boys Back Home.flac
53292efa89fd1227c03c7bd00575999a *118 Is There Anybody Out There.flac
aebc327daa43844a258efb372f3c875c *119 Hey You.flac
035be312d06f583eae2927994005b979 *120 The Doctor.flac
ea9a2eaf94dc5d065aaae22b85de06a3 *121 Run Like Hell.flac
402cbc2618ec09501f2d81ce63414da1 *122 Follow The Worms.flac
42c61e8efe2a0c6c6e40d79f56a82ae0 *123 Trial By Puppet (Prophet Synth Version).flac
d6205b0f705cce695b8b6ede0d393ff6 *124 It’s Never Too Late.flac
3cb69476a65681061b5aa8a8a2e307d5 *125 Instrumental Theme.flac
90f69564537a6c96040c2bae5e25d4c6 *126 Thin Ice (Reprise).flac
7e88614e172bcd98b8eec53a58146e32 *127 Comfortably Numb (Original Demo).flac
a56708f41e105da8d5686ee346a95a86 *128 Run Like Hell (Original Demo).flac
da8122a3eb5bd7d1311e8b9187457d8f *201 The Show.flac
7a9e74c5ac03e300f56a99d5598eba32 *202 The Thin Ice.flac
166fa2c8f829aac29543bf7ea4a95487 *203 Another Brick In The Wall – Reminiscing.flac
aee640416b4370a43e294d5b5774499f *204 Happiest Days.flac
e85c75c22c3a6a4a1c286bbfac9d9625 *205 Another Brick In The Wall – Education.flac
b9542f9ecad974243ad2f03f4c51a694 *206 Mother.flac
62c7e7b2b56e4cf8721b1d2bbbcea49e *207 Goodbye Blue Sky.flac
d30044bc873c430416c92cb31761cc0f *208 Empty Spaces.flac
788ce75e5978eb36fe067f9e30469326 *209 Young Lust.flac
82f9070d69f1c830be3d093332a39911 *210 One Of My Turns.flac
59e01781b5761e5283c83e2de4727966 *211 Don’t Leave Me Now.flac
eb4e78810b2b21ce2c5f1bf8050cea7d *212 Backs To The Wall.flac
8a0aa7b8e7ee3499c05a5ce75b4150d4 *213 Another Brick In The Wall – Drugs.flac
cdc34d5637737d301e0dec9ac2e7718b *214 Goodbye Cruel World.flac
0436b4b6920dbaf14d19696165bb7573 *215 Is There Anybody Out There.flac
5043cd6ce2158c1ad4a918efcce286f5 *216 Vera.flac
c5f0e467d14a856e21c16e1dbffc22f7 *217 Bring The Boys Back Home.flac
6e52af600cd3c29ab45cd8b9c444e696 *218 Is There Anybody Out There.flac
97423f48426f0f9f543f5b5d81d95a54 *219 The Doctor.flac
a0ef88f4e86f55060e02508307b222d4 *220 Hey You.flac
539d6170e8b33a05fa905dc8bad7ce63 *221 It’s Never Too Late.flac
848856f797d0bbaf853f4341ca334a7b *222 The Show.flac
5b2c985c69bcda7249c323af9f9699a3 *223 Run Like Hell.flac
4f5553d4122df295e4a3c43ca037ba0e *224 Waiting For The Worms.flac
ededfe024a16b67338168cf3429c19e0 *225 Stop.flac
29feebe7c388c79ae5cca7b3217a4352 *226 Trial By Puppets (Piano Version).flac
1c4a1ddeee6b112ffe95c5baff0b77d4 *227 Outside The Wall.flac
f9d8ed60d1990c5719debab730cb1eff *228 The Doctor (Alternate Take).flac

length     expanded size    cdr  WAVE problems  fmt   ratio  filename
 0:55.50        9819644 B   ---   --   ---xx   flac  0.5382  101 We'll Meet Again.flac
 4:49.25       51038444 B   ---   --   ---xx   flac  0.5000  102 Brick 1 - Reminiscing.flac
 3:31.69       37382732 B   ---   --   ---xx   flac  0.4740  103 Thin Ice.flac
 2:22.62       25194668 B   ---   --   ---xx   flac  0.4873  104 Goodbye Blue Sky.flac
 2:50.12       30016268 B   ---   --   ---xx   flac  0.5386  105 Teacher Teacher.flac
 1:31.11       16078316 B   ---   --   ---xx   flac  0.4160  106 Brick 2 - Education.flac
 1:53.27       19996748 B   ---   --   ---xx   flac  0.4981  107 Empty Spaces.flac
 4:26.60       47063564 B   ---   --   ---xx   flac  0.5401  108 Young Lust.flac
 4:38.54       49166252 B   ---   --   ---xx   flac  0.6166  109 Mother.flac
 4:34.72       48502988 B   ---   --   ---xx   flac  0.4625  110 Don't Leave Me Now.flac
 5:00.47       53030588 B   ---   --   ---xx   flac  0.5377  111 Sexual Revolution.flac
 1:25.13       15024620 B   ---   --   ---xx   flac  0.4924  112 Brick 3 - Drugs.flac
 1:14.34       13133612 B   ---   --   ---xx   flac  0.3356  113 Goodbye Cruel World.flac
 1:51.42       19679228 B   ---   --   ---xx   flac  0.4405  114 Is There Anybody Out There.flac
 1:23.30       14711804 B   ---   --   ---xx   flac  0.4228  115 Vera.flac
 0:55.29        9770252 B   ---   --   ---xx   flac  0.4485  116 Is There Anybody Out There.flac
 0:41.45        7338284 B   ---   --   ---xx   flac  0.5415  117 Bring The Boys Back Home.flac
 3:28.70       36855884 B   ---   --   ---xx   flac  0.5580  118 Is There Anybody Out There.flac
 4:03.45       42971084 B   ---   --   ---xx   flac  0.5134  119 Hey You.flac
 3:19.03       35110700 B   ---   --   ---xx   flac  0.5772  120 The Doctor.flac
 3:06.37       32897468 B   ---   --   ---xx   flac  0.5424  121 Run Like Hell.flac
 3:53.54       41228252 B   ---   --   ---xx   flac  0.5731  122 Follow The Worms.flac
 4:05.67       43375628 B   ---   --   ---xx   flac  0.4869  123 Trial By Puppet (Prophet Synth Version).flac
 2:07.07       22419308 B   ---   --   ---xx   flac  0.5843  124 It's Never Too Late.flac
 1:19.09       13956812 B   ---   --   ---xx   flac  0.4042  125 Instrumental Theme.flac
 1:32.04       16238252 B   ---   --   ---xx   flac  0.5739  126 Thin Ice (Reprise).flac
 3:14.65       34374524 B   ---   --   ---xx   flac  0.5106  127 Comfortably Numb (Original Demo).flac
 3:02.02       32109548 B   ---   --   ---xx   flac  0.3346  128 Run Like Hell (Original Demo).flac
 3:25.64       36312572 B   ---   --   ---xx   flac  0.5329  201 The Show.flac
 2:38.18       27913580 B   ---   --   ---xx   flac  0.5106  202 The Thin Ice.flac
 3:34.66       37904876 B   ---   --   ---xx   flac  0.5047  203 Another Brick In The Wall - Reminiscing.flac
 1:50.56       19535756 B   ---   --   ---xx   flac  0.5469  204 Happiest Days.flac
 1:53.61       20076716 B   ---   --   ---xx   flac  0.4783  205 Another Brick In The Wall - Education.flac
 4:35.27       48573548 B   ---   --   ---xx   flac  0.5742  206 Mother.flac
 2:17.71       24333836 B   ---   --   ---xx   flac  0.5241  207 Goodbye Blue Sky.flac
 1:53.21       19982636 B   ---   --   ---xx   flac  0.5379  208 Empty Spaces.flac
 3:36.12       38130668 B   ---   --   ---xx   flac  0.5536  209 Young Lust.flac
 6:34.08       69520460 B   ---   --   ---xx   flac  0.4940  210 One Of My Turns.flac
 0:51.61        9139916 B   ---   --   ---xx   flac  0.5455  211 Don't Leave Me Now.flac
 1:33.08       16424060 B   ---   --   ---xx   flac  0.5576  212 Backs To The Wall.flac
 1:25.74       15168092 B   ---   --   ---xx   flac  0.5426  213 Another Brick In The Wall - Drugs.flac
 1:03.24       11169692 B   ---   --   ---xx   flac  0.4531  214 Goodbye Cruel World.flac
 1:51.44       19683932 B   ---   --   ---xx   flac  0.4407  215 Is There Anybody Out There.flac
 1:19.72       14104988 B   ---   --   ---xx   flac  0.4311  216 Vera.flac
 0:38.09        6724412 B   ---   --   ---xx   flac  0.5527  217 Bring The Boys Back Home.flac
 3:29.03       36874700 B   ---   --   ---xx   flac  0.5581  218 Is There Anybody Out There.flac
 4:53.68       51845180 B   ---   --   ---xx   flac  0.6367  219 The Doctor.flac
 4:03.41       42961676 B   ---   --   ---xx   flac  0.5135  220 Hey You.flac
 2:18.62       24489068 B   ---   --   ---xx   flac  0.5870  221 It's Never Too Late.flac
 4:36.07       48702908 B   ---   --   ---xx   flac  0.5482  222 The Show.flac
 5:02.24       53329292 B   ---   --   ---xx   flac  0.5969  223 Run Like Hell.flac
 3:51.69       40910732 B   ---   --   ---xx   flac  0.5799  224 Waiting For The Worms.flac
 0:38.13        6733820 B   ---   --   ---xx   flac  0.5238  225 Stop.flac
 5:03.40       53543324 B   ---   --   ---xx   flac  0.5620  226 Trial By Puppets (Piano Version).flac
 1:27.06       15360956 B   ---   --   ---xx   flac  0.5869  227 Outside The Wall.flac
 3:15.16       34435676 B   ---   --   ---xx   flac  0.5880  228 The Doctor (Alternate Take).flac

157:03.65 1662372544 B 0.5282 (56 files)

Pink Floyd 1994.04.16&17 Bells Bowl (LEM 018)

Pink Floyd
Bells Bowl
LEM 018

1994.04.16&17
Rose Bowl
Pasadena, CA

Audience recordings

Original bootleg discs -> EZ CD Audio Converter -> FLAC level 5
Ripped and shared by Gullveig.org

1994.04.16
101 Astronomy Domine
102 Learning To Fly
103 What Do You Want From Me
104 Poles Apart
105 Sorrow
106 Take It Back
107 On The Turning Away
108 Keep Talking
109 One Of These Days
110 Shine On YOu Crazy Diamond Parts 1-5
201 Breathe
202 Time – Breathe (Reprise)
203 High Hopes
204 Wish You Were Here
205 Another Brick In The Wall Part 2
206 The Great Gig In The Sky
207 Us And Them
208 Money
209 Comfortably Numb
210 Hey You
211 Run Like Hell

1994.04.17
301 Astronomy Domine
302 Learning To Fly
303 What Do You Want From Me
304 Poles Apart
305 Sorrow
306 Take It Back
307 On The Turning Away
308 Keep Talking
309 One Of These Days
310 Shine On You Crazy Diamond Parts 1-5
401 Breathe
402 Time – Breathe (Reprise)
403 High Hopes
404 Wish You Were Here
405 Another Brick In The Wall Part 2
406 The Great Gig In The Sky
407 Us And Them
408 Money
409 Comfortably Numb
410 Hey You
411 Run Like Hell

Download from FileFactory: https://www.filefactory.com/file/4dtv7q1wugrq/gph0345.rar

Download from mega.nz: https://mega.nz/file/5UAk1BaL#tkSYC77pdagjCEKdr5rIECb3YjFf2URkctoT0lcRa0s

Torrent download via magent uri:
magnet:?xt=urn:btih:34688f844ef66c65fa8bc09fbddec6e3aa003489&xt=urn:btmh:12209a5ac3d05571f4663f9f646c7fac9f95820f48d3ec53e77b7d77b5bcf76de38b&dn=PF%201994.04.16%2617%20Bells%20Bowl%20(LEM%20018)
[copy this magent uri and paste into your torrent client]

Date prepared: 2023.04.08

101 Astronomy Domine.flac:41cfc6c344ea6baea765566ddd57c7c8
102 Learning To Fly.flac:be054bbdbc90e89060ddf213f873fcca
103 What Do You Want From Me.flac:2af63d56f3d2a4642dea4dc7095cc8ed
104 Poles Apart.flac:cce7054739c96c5437041ea7ddfc5ffb
105 Sorrow.flac:9cee3526059103c1acd7be1d581e98a9
106 Take It Back.flac:4882bb581c6baaf2fd26afdd3ab1b1a6
107 On The Turning Away.flac:e7c816fb31210c4e8e131e1c05932d20
108 Keep Talking.flac:f8b27f319469d56235fcb6e609f06c96
109 One Of These Days.flac:af5ae8bc7d44c7d0d14834c814ae435c
110 Shine On You Crazy Diamond Parts 1-5.flac:c2234682f01793a063c8a768b2a3a3f6
201 Breathe.flac:5b58ee4d21c9649785bc3cc074c96ee2
202 Time – Breathe (Reprise).flac:b6a9b0b7ff08832de031399eeba241b2
203 High Hopes.flac:a9ae0b1342417702126e27ccb30035d2
204 Wish You Were Here.flac:ec3e881c47b6a713a2ee46948af5279f
205 Another Brick In The Wall Part 2.flac:ff7784e9d568ab178152a82656330125
206 The Great Gig In The Sky.flac:5a58d37641ab32209fe421ee6fd04c98
207 Us And Them.flac:f0d0a2a3fea81a6590f018b0e6e2f828
208 Money.flac:a026a7be9cb969a3ca3a07021956882a
209 Comfortably Numb.flac:cc0d416e2c16972bd881a9e99ed87a4d
210 Hey You.flac:1426c30227699842e22caa75bf119fbd
211 Run Like Hell.flac:d8ffcc10e3491b128e2132819e669053
301 Astronomy Domine.flac:92703b0ebeeabcc2ac60c4db66e02616
302 Learning To Fly.flac:a81a5382f3b78ad35d4af640f9531b1b
303 What Do You Want From Me.flac:9056f428c4d164dfecd7fb30a7b3f283
304 Poles Apart.flac:e7cfdb1313119600ae1e661feab41d1e
305 Sorrow.flac:2eee84430046bc7f8b08fd5d34ff95f7
306 Take It Back.flac:bea1e6105093b6295df89f1e129d48dd
307 On The Turning Away.flac:acf8902a9544a470283e9a198eb66c68
308 Keep Talking.flac:78d4751e41d33ecb772eec3696848e81
309 One Of These Days.flac:03afa14bc38a56e939e39d1c7598ba2b
310 Shine On You Crazy Diamond Parts 1-5.flac:ecc5d0a1b8c1603ba6406f8d09cab676
401 Breathe.flac:3de91285061a3d404a30baa8e51620ac
402 Time – Breathe (Reprise).flac:88e882627185cd85c7f1051968ef1317
403 High Hopes.flac:c082861c792afdebc86b7eed4bc500d2
404 Wish You Were Here.flac:143d2ef87051722afbfd01f8d677df5e
405 Another Brick In The Wall Part 2.flac:e34391a0e2af9902f42129120a911563
406 The Great Gig In The Sky.flac:5e7f9c1f8e6ca7847a1121cb9ae32fe0
407 Us And Them.flac:00087454d7efb37d0d9e1cbc217e694b
408 Money.flac:9da2cc171ecc64cd5e74fa9b87dc6ca1
409 Comfortably Numb.flac:be458bfe42acf5fc894de2424711b7e2
410 Hey You.flac:7f690a0130995feb2aad90eeac61f0cd
411 Run Like Hell.flac:12afa977c230cb3b3bbceb38ad8ba9cf

983571314d7d923073a6701fd7127731 *101 Astronomy Domine.flac
5612632ffcb4590dd789ad23a5f3441e *102 Learning To Fly.flac
c3ecc5d73b70e46b5a22af6094e57c97 *103 What Do You Want From Me.flac
491d0f11c724c1ad61573f9aea35aedd *104 Poles Apart.flac
63f6b5615787dd404d318f703a7923bd *105 Sorrow.flac
0e580b222252f88ee6d282ce5d05b66a *106 Take It Back.flac
2712f3e0fde66a1ef6b87095feb63a0d *107 On The Turning Away.flac
b2e35bc60599cb6c08fd544c33addaab *108 Keep Talking.flac
d03aeec15cd259c9def1dff93826e0b6 *109 One Of These Days.flac
1abbe33a73e370eac5b8ae655ccc5d22 *110 Shine On You Crazy Diamond Parts 1-5.flac
15d882b9c507433d0007aef3da0b85ff *201 Breathe.flac
3de4c5a6e2463a3b9f182a0ac607305b *202 Time – Breathe (Reprise).flac
8c57e01eb5f35023cf7d00a17a97ad30 *203 High Hopes.flac
2a0c9e01f0cf8242b574037b6c06f89f *204 Wish You Were Here.flac
21206c2de075e96a7e921df16b46fbd9 *205 Another Brick In The Wall Part 2.flac
560f6c977a095281c9e67d83fbd1a86c *206 The Great Gig In The Sky.flac
47cb03ee71e24afeb4b9215103ffb46c *207 Us And Them.flac
ac21643e79e70659a3f72454f12fe358 *208 Money.flac
49d739b4463a350b2f5b3d77165ceb53 *209 Comfortably Numb.flac
236e3b36ee8d548864837402eab36cfc *210 Hey You.flac
92a359f9131ca3e48c2d6759aafe800d *211 Run Like Hell.flac
97fb82f11f0d092025938446b9f7b367 *301 Astronomy Domine.flac
2da64b3f1f93f0594e1f355997ffe1c5 *302 Learning To Fly.flac
71038eec16f011d33e2ab534ff8ebfa5 *303 What Do You Want From Me.flac
84c388cc7da869d1d9add6b580afacea *304 Poles Apart.flac
d1ec4ec04f2845b038f91dbd2f4f561e *305 Sorrow.flac
f0d1bcd8de213fd807f5010bb0840251 *306 Take It Back.flac
0ebfde3540fcde84b0510d4372b26f11 *307 On The Turning Away.flac
737b7dd5fab89a6dd161267b8d32c5f1 *308 Keep Talking.flac
d76e8b7f2e593ed2d6629cc5d3b22d5d *309 One Of These Days.flac
21a0a55d3629a1658fba019abb312b13 *310 Shine On You Crazy Diamond Parts 1-5.flac
ea945305cd6ecaf11f9cf8e8c33712d8 *401 Breathe.flac
94226daf89a4f53e0dba519b20ae0ca7 *402 Time – Breathe (Reprise).flac
3558cc6263cccda8b28677ff189e7a38 *403 High Hopes.flac
a712569321be00fc95409ef90ec46f1f *404 Wish You Were Here.flac
beeaed6cb2c2650a610819ab6a96df42 *405 Another Brick In The Wall Part 2.flac
100e9fe7d25906227b31311421e6cc8e *406 The Great Gig In The Sky.flac
c41bad4e67e7dd55ef4d277188f00eda *407 Us And Them.flac
4068c20a35ef662aaef1be2899e7ca92 *408 Money.flac
80e7f653605f755cca6a014fa3da0a8a *409 Comfortably Numb.flac
476c4851d6ef2b86c6b835344138dd1a *410 Hey You.flac
6175ed4d3f7f034c405e71fd66d36070 *411 Run Like Hell.flac

length     expanded size    cdr  WAVE problems  fmt   ratio  filename
 5:56.03       62805500 B   ---   --   ---xx   flac  0.5652  101 Astronomy Domine.flac
 5:53.19       62313932 B   ---   --   ---xx   flac  0.5791  102 Learning To Fly.flac
 4:26.02       46927148 B   ---   --   ---xx   flac  0.6091  103 What Do You Want From Me.flac
 7:06.10       75169964 B   ---   --   ---xx   flac  0.5686  104 Poles Apart.flac
10:00.25      105898844 B   ---   --   ---xx   flac  0.5615  105 Sorrow.flac
 6:10.19       65312732 B   ---   --   ---xx   flac  0.5519  106 Take It Back.flac
 7:13.11       76407116 B   ---   --   ---xx   flac  0.5735  107 On The Turning Away.flac
 7:11.16       76066076 B   ---   --   ---xx   flac  0.5237  108 Keep Talking.flac
 6:18.57       66813308 B   ---   --   ---xx   flac  0.5652  109 One Of These Days.flac
11:35.25      122656844 B   ---   --   ---xx   flac  0.5367  110 Shine On You Crazy Diamond Parts 1-5.flac
 2:58.43       31500380 B   ---   --   ---xx   flac  0.5400  201 Breathe.flac
 6:53.59       72992012 B   ---   --   ---xx   flac  0.5445  202 Time - Breathe (Reprise).flac
 8:21.06       88390556 B   ---   --   ---xx   flac  0.5327  203 High Hopes.flac
 5:29.15       58070924 B   ---   --   ---xx   flac  0.5337  204 Wish You Were Here.flac
 6:37.39       70122572 B   ---   --   ---xx   flac  0.5712  205 Another Brick In The Wall Part 2.flac
 4:53.66       51840476 B   ---   --   ---xx   flac  0.4935  206 The Great Gig In The Sky.flac
 7:39.58       81104060 B   ---   --   ---xx   flac  0.5487  207 Us And Them.flac
 8:36.33       91100060 B   ---   --   ---xx   flac  0.5700  208 Money.flac
 8:57.46       94835036 B   ---   --   ---xx   flac  0.6249  209 Comfortably Numb.flac
 5:58.70       63315884 B   ---   --   ---xx   flac  0.5398  210 Hey You.flac
 6:43.52       71211548 B   ---   --   ---xx   flac  0.6011  211 Run Like Hell.flac
 4:56.39       52306172 B   ---   --   ---xx   flac  0.5259  301 Astronomy Domine.flac
 5:54.04       62455052 B   ---   --   ---xx   flac  0.5409  302 Learning To Fly.flac
 4:19.52       45809948 B   ---   --   ---xx   flac  0.5850  303 What Do You Want From Me.flac
 4:47.14       50659772 B   ---   --   ---xx   flac  0.5682  304 Poles Apart.flac
 9:59.62      105809468 B   ---   --   ---xx   flac  0.5787  305 Sorrow.flac
 6:02.00       63856844 B   ---   --   ---xx   flac  0.5799  306 Take It Back.flac
 7:39.53       81092300 B   ---   --   ---xx   flac  0.5803  307 On The Turning Away.flac
 7:09.31       75748556 B   ---   --   ---xx   flac  0.5713  308 Keep Talking.flac
 5:53.16       62306876 B   ---   --   ---xx   flac  0.6006  309 One Of These Days.flac
11:23.21      120530636 B   ---   --   ---xx   flac  0.5730  310 Shine On You Crazy Diamond Parts 1-5.flac
 2:56.66       31201676 B   ---   --   ---xx   flac  0.6006  401 Breathe.flac
 6:57.72       73728188 B   ---   --   ---xx   flac  0.6037  402 Time - Breathe (Reprise).flac
 8:22.42       88651628 B   ---   --   ---xx   flac  0.5872  403 High Hopes.flac
 5:34.25       58976444 B   ---   --   ---xx   flac  0.5820  404 Wish You Were Here.flac
 6:27.11       68292716 B   ---   --   ---xx   flac  0.6207  405 Another Brick In The Wall Part 2.flac
 4:53.15       51720524 B   ---   --   ---xx   flac  0.5550  406 The Great Gig In The Sky.flac
 7:41.42       81419228 B   ---   --   ---xx   flac  0.5760  407 Us And Them.flac
 8:48.38       93228620 B   ---   --   ---xx   flac  0.6160  408 Money.flac
 9:36.39      101698172 B   ---   --   ---xx   flac  0.6300  409 Comfortably Numb.flac
 4:48.64       50953772 B   ---   --   ---xx   flac  0.5899  410 Hey You.flac
 8:35.41       90942476 B   ---   --   ---xx   flac  0.6045  411 Run Like Hell.flac

287:48.71 3046244040 B 0.5728 (42 files)

Pink Floyd The Dark Side Of The Moon Outtakes (Sigma 308)

Pink Floyd
The Dark Side Of The Moon Outtakes
Sigma 308

Original bootleg discs -> EZ CD Audio Converter -> FLAC level 5
Ripped and shared by Gullveig.org

British Winter Tour ’74 Extended Tape
01 Speak To Me

1972 Early Mix
02 Breathe (In The Air)
03 On The Run
04 Time
05 The Great Gig In The Sky

Alternate Mix From Multi-Track Master
06 Money
07 Us And Them
08 Any Colour You Like
09 Brain Damage
10 Eclipse

Studio Recording Sessions
11 Us And Them (1969 Recording Version)
12 The Travel Sequence (Studio Version)
13 Time (Rough Mix)
14 Us And Them (Rough Mix)
15 Brain Damage (Rough Mix)
16 Eclipse (Rough Mix)

SE Tapes For Concert Tours
17 Speak To Me (North American Tour ’75)
18 Money
19 Us And Them

Download from FileFactory: https://www.filefactory.com/file/1pzin871rbvk/gph0344.rar

Download from mega.nz: https://mega.nz/file/IFABnKCb#Dw3-2DMMTPbOnq5ZJkpLWHK1wAg7U-koFPUFdjHAPCA

Torrent download via magnet uri: magnet:?xt=urn:btih:479787adfbbe36f012752b785016fecf23b0ca67&dn=PF%20The%20Dark%20Side%20Of%20The%20Moon%20Outtakes%20(Sigma%20308) [copy this magnet uri and paste into your torrent client]

Date prepared: 2023.04.08

01 Speak To Me.flac:19a5b01b7035752f5bba2b67e5be2ac1
02 Breathe (In The Air).flac:c0bcf2bda327b8c238492fa6a99ad676
03 On The Run.flac:3b8f1937ab9268e83179597c477c96a4
04 Time.flac:8510caf1afea32e2a0b4b18d68a38414
05 The Great Gig In The Sky.flac:c6b98be06cd85a15b9cc76bb7a0251e9
06 Money.flac:4d7f39d110afb5eacc8dd7f90a2144e0
07 Us And Them.flac:c13dbb644a865e9c8ce16799bae64b3e
08 Any Colour You Like.flac:9cd604205deea3b51838c747ee2fe396
09 Brain Damage.flac:26558643cbbefe25956ba20f515fc709
10 Eclipse.flac:31e6ad64b2d8a1aa45bb2ae1eeb39f11
11 Us And Them (1969 Recording Version).flac:5f148efe4adefd013870f72db0880d2a
12 The Travel Sequence (Studio Version).flac:f4f5a820bd6f2897dd72c78e8b07a749
13 Time (Rough Mix).flac:311552cb776a029705cb0fe6d813e308
14 Us And Them (Rough Mix).flac:84ef5bb6657f7b6d05d79b730335db0e
15 Brain Damage (Rough Mix).flac:b1d645e02464b5c94915572fb5b62c1e
16 Eclipse (Rough Mix).flac:b6f11dff6482be29ca3bfd37657fb96e
17 Speak To Me (North American Tour ’75).flac:4f6bf6e3256eadc80211bea31074c3af
18 Money.flac:b75419235747adc96e5d57dafcadec1e
19 Us And Them.flac:8514ee4a7da65c6111a4f34e15255b4b

0685ad4b199936ebda63538a88294e1d *01 Speak To Me.flac
6003e35ba0992c1643eda3b9a2c80185 *02 Breathe (In The Air).flac
c2b33e7d6eec0e69bbbb558f85eed084 *03 On The Run.flac
68969cd294e797ebe7db6bcf1e554afc *04 Time.flac
94e8da9c81d636d47f9b89a37d8a57e1 *05 The Great Gig In The Sky.flac
3cee22374dee2bd0da11f67f27482a77 *06 Money.flac
bc1f044e17084d0fdea34d0f4ee8455a *07 Us And Them.flac
331f848f6ab4bc063f28b6b4e1f81e34 *08 Any Colour You Like.flac
26faf3f43c3ef3206d3c3f724157e206 *09 Brain Damage.flac
fdd4735cca96f496ec73493edbde6a36 *10 Eclipse.flac
b335410bdc300edb6341c6d73f50614b *11 Us And Them (1969 Recording Version).flac
402335c17592f17dbcc611cadd6aa41a *12 The Travel Sequence (Studio Version).flac
60e1558fcfeb559cae59bf41dfa0f872 *13 Time (Rough Mix).flac
f304a7db2f4e3dbf2f0c1dc80fa0b864 *14 Us And Them (Rough Mix).flac
9d06a2c4c3a81afd9c9a32d3a352639c *15 Brain Damage (Rough Mix).flac
4ac772ce8e423e8f0324f60d6b9a66e9 *16 Eclipse (Rough Mix).flac
fcd4f697b2cc317a41bae5740c3da54d *17 Speak To Me (North American Tour ’75).flac
c6b596afb0907a7c6c795a662d212392 *18 Money.flac
e6bf9477fb20b6284dbd377a81069ce6 *19 Us And Them.flac

length     expanded size    cdr  WAVE problems  fmt   ratio  filename
 3:32.37       37483868 B   ---   --   ---xx   flac  0.3710  01 Speak To Me.flac
 2:44.12       28957868 B   ---   --   ---xx   flac  0.5962  02 Breathe (In The Air).flac
 3:30.55       37173404 B   ---   --   ---xx   flac  0.5969  03 On The Run.flac
 6:56.23       73436540 B   ---   --   ---xx   flac  0.6029  04 Time.flac
 4:12.64       44603372 B   ---   --   ---xx   flac  0.4444  05 The Great Gig In The Sky.flac
 7:15.18       76776380 B   ---   --   ---xx   flac  0.6249  06 Money.flac
 7:49.25       82790444 B   ---   --   ---xx   flac  0.5423  07 Us And Them.flac
 3:24.66       36140876 B   ---   --   ---xx   flac  0.5755  08 Any Colour You Like.flac
 3:46.55       39995804 B   ---   --   ---xx   flac  0.5738  09 Brain Damage.flac
 2:49.21       29861036 B   ---   --   ---xx   flac  0.5387  10 Eclipse.flac
 6:19.36       66940316 B   ---   --   ---xx   flac  0.4947  11 Us And Them (1969 Recording Version).flac
 2:19.33       24597260 B   ---   --   ---xx   flac  0.5950  12 The Travel Sequence (Studio Version).flac
 6:16.06       66340556 B   ---   --   ---xx   flac  0.3122  13 Time (Rough Mix).flac
 5:37.29       59515052 B   ---   --   ---xx   flac  0.3041  14 Us And Them (Rough Mix).flac
 4:05.47       43328588 B   ---   --   ---xx   flac  0.3655  15 Brain Damage (Rough Mix).flac
 1:33.56       16536956 B   ---   --   ---xx   flac  0.4135  16 Eclipse (Rough Mix).flac
 3:52.53       41049500 B   ---   --   ---xx   flac  0.4027  17 Speak To Me (North American Tour '75).flac
 1:26.04       15179852 B   ---   --   ---xx   flac  0.4048  18 Money.flac
 0:47.61        8434316 B   ---   --   ---xx   flac  0.4186  19 Us And Them.flac
78:20.26      829141988 B                            0.4892  (19 files)

Pink Floyd The Dark Side Of The Moon – Master Tape Copy (Sigma 309)

Pink Floyd
The Dark Side Of The Moon – Master Tape Copy
Sigma 309

Studio recording

Original bootleg discs -> EZ CD Audio Converter -> FLAC level 5
Ripped and shared by Gullveig.org

01 Speak To Me
02 Breathe (In The Air)
03 On The Run
04 Time
05 The Great Gig In The Sky
06 Money
07 Us And Them
08 Any Colour You Like
09 Brain Damage
10 Eclipse

Download from FileFactory: https://www.filefactory.com/file/4gp96nwzahaa/gph0343.rar

Download from mega.nz: https://mega.nz/file/UY4nBC4A#dhDiA63BGZLS6aU89iombs3ELGQPP2FkiVNOLS7PKbo

Torrent download via magnet uri: magnet:?xt=urn:btih:0693d9ea21ea79ce47ea1dbff9f0ec3814975360&dn=PF%20The%20Dark%20Side%20Of%20The%20Moon%20-%20Master%20Tape%20Copy%20(Sigma%20309) [copy this magnet uri and paste into your torrent client]

Date prepared: 2023.04.08

01 Speak To Me.flac:d651bab4ad8342d5909730323b66a81a
02 Breathe (In The Air).flac:1d09aa9eccc047050dd869f3fff3d080
03 On The Run.flac:e2e28d47fb78e1115c2e39f3158f51ad
04 Time.flac:efaad2b5b9a7ccfd546d73c737e57349
05 The Great Gig In The Sky.flac:cb84617ca939fb4e13f23900f06af6ab
06 Money.flac:7393eff5108a01abe23780daeaa0099e
07 Us And Them.flac:2968d33becd443f1ab3f6ce1f21831dd
08 Any Colour You Like.flac:86a74182ae5ae8f032dd1be85bb883a8
09 Brain Damage.flac:7d8c3794e23992c6ce35dec88df2fd4e
10 Eclipse.flac:bd24f9bb2c15f01d74f5515ebb45828f

b5c848e200ca0f7fcc35824ab889f0ee *01 Speak To Me.flac
934a03f712784259aeb699c319e38dee *02 Breathe (In The Air).flac
780b288816676cc74c1009d027222312 *03 On The Run.flac
80f765d234e65399dd21a2d1a15a7d04 *04 Time.flac
636e7fa70b823bda00d85730b591099e *05 The Great Gig In The Sky.flac
de3d35b42fa78ee967fe6c59728d42c4 *06 Money.flac
91c5305b93f9c1369f7987800b8f0db7 *07 Us And Them.flac
2757a3b3821c03c0049eb6b7f25042e2 *08 Any Colour You Like.flac
b0c6f188a7ccd8179a674e656e29f3de *09 Brain Damage.flac
9c25f12735da27c2679a83d16dc5a625 *10 Eclipse.flac

length     expanded size    cdr  WAVE problems  fmt   ratio  filename
 1:08.54       12122252 B   ---   --   ---xx   flac  0.3786  01 Speak To Me.flac
 2:47.37       29545868 B   ---   --   ---xx   flac  0.5769  02 Breathe (In The Air).flac
 3:50.22       40623788 B   ---   --   ---xx   flac  0.4982  03 On The Run.flac
 6:48.57       72105308 B   ---   --   ---xx   flac  0.5547  04 Time.flac
 4:48.12       50831468 B   ---   --   ---xx   flac  0.4769  05 The Great Gig In The Sky.flac
 6:22.22       67436588 B   ---   --   ---xx   flac  0.6205  06 Money.flac
 7:49.46       82839836 B   ---   --   ---xx   flac  0.5365  07 Us And Them.flac
 3:25.50       36279644 B   ---   --   ---xx   flac  0.5582  08 Any Colour You Like.flac
 3:46.69       40028732 B   ---   --   ---xx   flac  0.5539  09 Brain Damage.flac
 2:10.20       22979084 B   ---   --   ---xx   flac  0.5285  10 Eclipse.flac
42:58.14      454792568 B                            0.5430  (10 files)

Pink Floyd 1974.11.16 Wembley 1974 Pre FM Master – 3 Source Mix (Sigma 227)

Pink Floyd
Wembley 1974 Pre FM Master – 3 Source Mix
Sigma 227

1974.11.16
Empire Pool, Wembley
London, UK

Pre-FM recording

Original bootleg discs -> EZ CD Audio Converter -> FLAC level 5
Ripped and shared by Gullveig.org

The Dark Side Of The Moon
01 Speak To Me
02 Breathe
03 On The Run
04 Time
05 Breathe (Reprise)
06 The Great Gig In The Sky
07 Money
08 Us And Them
09 Any Colour You Like
10 Brain Damage
11 Eclipse

12 Echoes

Download from FileFactory: https://www.filefactory.com/file/6cz0edwph4s6/gph0342.rar

Download from mega.nz: https://mega.nz/file/9EASlRBL#5TGgEQ0gagWHEEzjlqVvXzlVcm93FyN878-5DNx_0ds

Date prepared: 2023.04.04

01 Speak To Me.flac:f00856e8572111e51c3da1e2cb5f50b0
02 Breathe.flac:45ea9802bd1e1f87890f3c326136e242
03 On The Run.flac:b168945beaaddb3e65819995e6d09647
04 Time.flac:20d4caf8f3d74a103ea00141eee9fb05
05 Breathe (Reprise).flac:33f1e1825859ca253211fdd538aa57c5
06 The Great Gig In The Sky.flac:66287fbd0a5d360a56263a4d39bb5786
07 Money.flac:d909d6a9d30140163f8e21aad72a61c6
08 Us And Them.flac:6200d9145c765551445f1009ecbd36c2
09 Any Colour You Like.flac:ca1542adb123c89ab866fa72f1ed9a22
10 Brain Damage.flac:169bc33826017af45aafccfd563acc8e
11 Eclipse.flac:f0702d5a71b9877278c137a77da610bc
12 Echoes.flac:2338b1e16a44a16e29c79e131b8287ac

c604383bd48e263d1084061ba9b8a5f2 *01 Speak To Me.flac
607c3ede883e4d5c9d9ad13c01208084 *02 Breathe.flac
0def212fd98f0d1c83896f0151f26bcb *03 On The Run.flac
cd506db8955b65ff4f65507717a7282e *04 Time.flac
556b05571cfc69b9cfec8e22ec3ccd95 *05 Breathe (Reprise).flac
6812a7fb9e8f7dfbccd06f98e38abf60 *06 The Great Gig In The Sky.flac
4d767e5763f93e5093663c4345fe8e4a *07 Money.flac
8dcf635d26ea3c2b84172e13012cc140 *08 Us And Them.flac
716eba6c40c3ea166f0faf5316f857da *09 Any Colour You Like.flac
37fef67ebf95fbf340d78b371150f92e *10 Brain Damage.flac
ee752b8af7896a0cb5b5014a0264501e *11 Eclipse.flac
12eae40e0d245d6c598e62827409e212 *12 Echoes.flac

length     expanded size    cdr  WAVE problems  fmt   ratio  filename
 2:28.31       26180156 B   ---   --   ---xx   flac  0.5831  01 Speak To Me.flac
 3:00.17       31792028 B   ---   --   ---xx   flac  0.6472  02 Breathe.flac
 5:02.09       53294012 B   ---   --   ---xx   flac  0.6267  03 On The Run.flac
 5:28.59       57998012 B   ---   --   ---xx   flac  0.6501  04 Time.flac
 1:01.28       10826300 B   ---   --   ---xx   flac  0.6441  05 Breathe (Reprise).flac
 6:43.54       71216252 B   ---   --   ---xx   flac  0.6354  06 The Great Gig In The Sky.flac
 7:59.32       84570908 B   ---   --   ---xx   flac  0.6622  07 Money.flac
 7:53.33       83514860 B   ---   --   ---xx   flac  0.6415  08 Us And Them.flac
 7:35.00       80262044 B   ---   --   ---xx   flac  0.6321  09 Any Colour You Like.flac
 3:42.03       39167900 B   ---   --   ---xx   flac  0.6082  10 Brain Damage.flac
 1:44.09       18366812 B   ---   --   ---xx   flac  0.6799  11 Eclipse.flac
23:13.16      245762876 B   ---   --   ---xx   flac  0.6059  12 Echoes.flac
75:51.66      802952160 B                            0.6285  (12 files)

Pink Floyd 1971.xx.xx Live At Pompeii – Definitive Edition [DVD] (no label)

Pink Floyd
Live At Pompeii – Definitive Edition
no label

Roman Amphitheater, Pompei, Italy 1971.10.04-07
Studio Europe-Sonor, Paris, France 1971.12.13-20

Two Pro-shot DVD (NTSC)

Extracted to VIDEO_TS via WinX DVD Copy Pro
Ripped and shared by Gullveig.org

DVD1
Restored 1972 Original Cut (Mono Mix)
01 Introduction
02 Echoes Part 1
03 Careful With That Axe, Eugene
04 One Of These Days
05 A Saucerful Of Secrets
06 Set The Controls For The Heart Of The Sun
07 Mademoiselle Nobs
08 Echoes Part 2
09 End Credits

DVD2
Restored 1974 Theatrical Cut (Stereo Mix)
01 Introduction
02 Echoes Part 1
03 One The Run (Studio Footage)
04 Careful With That Axe, Eugene
05 A Saucerful Of Secrets
06 Us And Them (Studio Footage)
07 One Of These Days
08 Set The Controls For The Heart Of The Sun
09 Brain Damage (Studio Footage)
10 Mademoiselle Nobs
11 Echoes Part 2
12 End Credits

Download from mega.nz: https://mega.nz/folder/kJxDFI4Z#Xjhpv4A9DUtfJ4_dZESXew

Date prepared: 2023.02.10

Pink Floyd 1969.09.17 The Man & The Journey – Live In Amsterdam 1969 (Sigma 305)

Pink Floyd
The Man & The Journey – Live In Amsterdam 1969
Sigma 305

1969.09.17
Concertgebouw
Amsterdam, Netherlands

Audience recording

Original bootleg discs -> EZ CD Audio Converter -> FLAC level 5
Ripped and shared by Gullveig.org

101 House Announcement
“The Man”
102 Daybreak (Granchester Meadows)
103 Work
104 Tea Time
105 Afternoon (Biding My Time)
106 Doing It (The Grand Vizier’s Garden Party Part 2)
107 Sleeping
108 Nightmare (Cymbaline)
109 Labyrinth

“The Journey”
201 The Beginning (Green Is The Colour)
202 Beset By Creatures Of The Deep (Careful With That Axe, Eugene)
203 The Narrow Way Part 3
204 The Pink Jungle (Pow R Toc H)
205 The Labyrinths Of Auximenes
206 Footsteps – Doors
207 Behold The Temple Of Light
208 The End Of The Beginning (A Saucerful Of Secrets)

Download from FileFactory: https://www.filefactory.com/file/2f270voerply/gph0337.rar

Download from mega.nz: https://mega.nz/file/sRID0TbL#scSo1MhFBpeT6BPluMyHauGqlXfppCdWHl8tJ3dLSb4

Date prepared: 2022.02.10

101 House Announcement.flac:3ea25f26c118db710dcb5087fc8d1db8
102 Daybreak (Grantchester Meadows).flac:a87bbc0f4af20319dfc34ef3691d4b2b
103 Work.flac:8665999d317a7ea3683bfeb8e3bfae79
104 Tea Time.flac:0934442cf7d4715531f28f2cadac4d33
105 Afternoon (Biding My Time).flac:7b555fcba730204c0db6fa5bf9104345
106 Doing It (The Grand Vizier’s Garden Party Pt. 2).flac:d09a7f57bffb00a374d65a230bda70e8
107 Sleeping.flac:a2c0a1795a4643887fd73f26b578f804
108 Nightmare (Cymbaline).flac:268f8692ae9e6c42d2d19b9fca89cf3c
109 Labyrinth.flac:94f5f15a6414f88b9339d0f76cbcc105
201 The Beginning.flac:04d7856a5cec03e0eaef9e7a48fc3678
202 Beset By The Creatures Of The Deep.flac:bf422b2f655c4b0f275e9dbdd565fb68
203 The Narrow Way.flac:d2049b7b00b1a224f80118e16c0c3da8
204 The Pink Jungle.flac:ed8c9b2f05117258e92da18b88602717
205 The Labyrinths Of Auximenes.flac:a8adf4c17c3840921db577778fefb343
206 Footsteps – Doors.flac:99d5e33783565bf21fbc1f5ff8a21bfe
207 Behold The Temple Of Light.flac:6d146b52ab81bb20d96b7805bd5a72e0
208 The End Of The Beginning.flac:43a0cf65f74e48b1ef5b967662a3ccb0

3a3bc561c7b1b5dc2e066a6fc4a6f277 *101 House Announcement.flac
db0d0b7d7aa97b44582c56eb0e9446a8 *102 Daybreak (Grantchester Meadows).flac
12c740ccc7e6c3c1f9c0f941ad468eb0 *103 Work.flac
deebea55f73727e5032f53d19a224d8d *104 Tea Time.flac
cdd47814f71489ebc18f556ab2bc4521 *105 Afternoon (Biding My Time).flac
ed76193a25be274091c5ee075ba7984f *106 Doing It (The Grand Vizier’s Garden Party Pt. 2).flac
bd3c5f6378bb12ba60a9c0170bfa2759 *107 Sleeping.flac
999c2e7ac6e504d659ae67f234ede75c *108 Nightmare (Cymbaline).flac
a188dc22d6257bec49cbd824db5bde0c *109 Labyrinth.flac
9925509492f6c1edc85cea2e4396ec57 *201 The Beginning.flac
39642bc6926d6c6141047424cb2e6b96 *202 Beset By The Creatures Of The Deep.flac
1b5f1d47e851027b8b6e901778316188 *203 The Narrow Way.flac
ab558c5dc3abf4de3e311066e2a8e2cd *204 The Pink Jungle.flac
4072c6a3f9e07934a4ae17cda5a5575d *205 The Labyrinths Of Auximenes.flac
b4354e332a0391504b8c705791691167 *206 Footsteps – Doors.flac
23c5f9cf4e20d7ee75d04c7529faf3ea *207 Behold The Temple Of Light.flac
4438ef5851a5b7e8e6c9f09aca14ccca *208 The End Of The Beginning.flac

length     expanded size    cdr  WAVE problems  fmt   ratio  filename
 1:18.55       13888604 B   ---   --   ---xx   flac  0.5700  101 House Announcement.flac
 8:10.03       86443100 B   ---   --   ---xx   flac  0.5410  102 Daybreak (Grantchester Meadows).flac
 4:12.21       44502236 B   ---   --   ---xx   flac  0.6182  103 Work.flac
 3:24.22       36037388 B   ---   --   ---xx   flac  0.4530  104 Tea Time.flac
 5:15.43       55667180 B   ---   --   ---xx   flac  0.6003  105 Afternoon (Biding My Time).flac
 3:50.25       40630844 B   ---   --   ---xx   flac  0.5894  106 Doing It (The Grand Vizier's Garden Party Pt. 2).flac
 4:36.38       48775820 B   ---   --   ---xx   flac  0.5009  107 Sleeping.flac
 9:14.65       97878524 B   ---   --   ---xx   flac  0.5731  108 Nightmare (Cymbaline).flac
 1:16.16       13444076 B   ---   --   ---xx   flac  0.5639  109 Labyrinth.flac
 5:00.11       52945916 B   ---   --   ---xx   flac  0.5565  201 The Beginning.flac
 6:28.10       68466764 B   ---   --   ---xx   flac  0.6407  202 Beset By The Creatures Of The Deep.flac
 5:10.41       54780476 B   ---   --   ---xx   flac  0.5965  203 The Narrow Way.flac
 4:42.71       49911836 B   ---   --   ---xx   flac  0.5197  204 The Pink Jungle.flac
 3:30.52       37166348 B   ---   --   ---xx   flac  0.4820  205 The Labyrinths Of Auximenes.flac
 3:14.43       34322780 B   ---   --   ---xx   flac  0.4627  206 Footsteps - Doors.flac
 5:22.57       56934908 B   ---   --   ---xx   flac  0.5068  207 Behold The Temple Of Light.flac
 6:57.38       73648220 B   ---   --   ---xx   flac  0.5828  208 The End Of The Beginning.flac
81:46.11      865445020 B                            0.5564  (17 files)

Pink Floyd 1972.06.28 Eclipsed By The Dome (Godfather 481/482)

Pink Floyd
Eclipsed By The Dome
Godfather GR 481/482

1972.06.28
The Dome
Brighton, England

Audience recording

Original bootleg discs -> EZ CD Audio Converter -> FLAC level 5
Ripped and shared by Gullveig.org

101 Speak To Me
102 Breathe
103 On The Run
104 Time
105 Breathe (Reprise)
106 The Great Gig In The Sky
107 Money
108 Us And Them
109 Any Colour You Like
110 Brain Damage
111 Eclipse
201 Tuning
202 One Of These Days
203 Careful With That Axe, Eugene
204 Echoes
205 Set The Controls For The Heart Of The Sun

Bonus track:
1972.01.28
Town Hall
Leeds, England
20 Blues

Download from FileFactory: https://www.filefactory.com/file/7cx1xs6vlxsy/gph0336.rar

Download from mega.nz: https://mega.nz/file/IRJnFCSK#30ygXxZOCKXuFS6Wa1X1a9bLFAwehVd5yuzxBzQhAiM

Date prepared: 2022.12.27

101 Speak To Me.flac:5438ae427cf74a7cb493ca9c329c2088
102 Breathe.flac:fc3fa21f5cd457e90fdf0244e4828a45
103 On The Run.flac:c7a2ca95d514446bddb8b127837ba106
104 Time.flac:b9690ac9111179d4d0cc78b5ed9c800a
105 Breathe (Reprise).flac:beeac85c6ff2f4fb42f39dc4d3216ecd
106 The Great Gig In The Sky.flac:a0297e3516c4f71b7beaefbe6a459e05
107 Money.flac:4a83075f61cce4a48d6b318fa5b8eac8
108 Us And Them.flac:093d368f9858d4ed83333a272b5ff663
109 Any Colour You Like.flac:238315bc3ad66454c3cb3c03784c199c
110 Brain Damage.flac:b56f7416a000d2e53e01b56f61f0b07a
111 Eclipse.flac:07c485fdb1504593308701d887a18890
201 Tuning.flac:24d7f85f35cc000b3730409c0b8254ee
202 One Of These Days.flac:af31d75007dfb0d502b63f1b19568e83
203 Careful With That Axe, Eugene.flac:772422641266e5e31f8bf208a41c8181
204 Echoes.flac:576408409163656b6a913de1dde808b1
205 Set The Controls For The Heart Of The Sun.flac:a8a280ad1a6ff1428ddd15237009332e
206 Blues.flac:0d4dd44917c2e87225beb069cc455506

12d7d4cc427fb0011618bfcc4429f59c *101 Speak To Me.flac
b613509159c1dc33a1247925a60d122a *102 Breathe.flac
f1e0be3c8a18189c140d2c30cf2add31 *103 On The Run.flac
e7544d0fd0b99fc4cd61b714db6a71ae *104 Time.flac
5df7f78878a690d12459251c424c5074 *105 Breathe (Reprise).flac
6839ad272c5a55cccbd79b4c58cd23d8 *106 The Great Gig In The Sky.flac
403dea5d12b02eafd21289195edaad78 *107 Money.flac
aa5efc35708c1a6aaccdaf73fa6c7fcc *108 Us And Them.flac
29746c2a41f245f70dee8af3956a1b81 *109 Any Colour You Like.flac
e38e8d54e90e73d8b12ba4043c536740 *110 Brain Damage.flac
f326f8f85068e41f220c3c032dadda57 *111 Eclipse.flac
ae25a8ad7a43a935dcec2171316005d0 *201 Tuning.flac
c1fc312e7c8dd06751d6050edfa16958 *202 One Of These Days.flac
553ad998423c643173e8066c4583ca3c *203 Careful With That Axe, Eugene.flac
03d93376b7fdb75417621df6b9a1872d *204 Echoes.flac
d40b75ba28dfc579bc55aeae06a6d752 *205 Set The Controls For The Heart Of The Sun.flac
1844ff8be87a258d8a0647638a9ed586 *206 Blues.flac

length     expanded size    cdr  WAVE problems  fmt   ratio  filename
 1:53.68       20093180 B   ---   --   ---xx   flac  0.4768  101 Speak To Me.flac
 2:45.59       29244812 B   ---   --   ---xx   flac  0.5669  102 Breathe.flac
 4:09.67       44081228 B   ---   --   ---xx   flac  0.5751  103 On The Run.flac
 6:15.41       66246476 B   ---   --   ---xx   flac  0.5618  104 Time.flac
 1:00.57       10718108 B   ---   --   ---xx   flac  0.5514  105 Breathe (Reprise).flac
 3:45.03       39697100 B   ---   --   ---xx   flac  0.5615  106 The Great Gig In The Sky.flac
 6:41.23       70790540 B   ---   --   ---xx   flac  0.5782  107 Money.flac
 7:46.50       82320044 B   ---   --   ---xx   flac  0.5691  108 Us And Them.flac
 4:33.15       48192524 B   ---   --   ---xx   flac  0.5692  109 Any Colour You Like.flac
 3:44.71       39680636 B   ---   --   ---xx   flac  0.5682  110 Brain Damage.flac
 1:42.69       18155132 B   ---   --   ---xx   flac  0.5842  111 Eclipse.flac
 2:47.08       29477660 B   ---   --   ---xx   flac  0.5584  201 Tuning.flac
 7:36.35       80520764 B   ---   --   ---xx   flac  0.5533  202 One Of These Days.flac
10:06.69      107060732 B   ---   --   ---xx   flac  0.5677  203 Careful With That Axe, Eugene.flac
26:47.30      283545404 B   ---   --   ---xx   flac  0.5516  204 Echoes.flac
11:44.21      124235036 B   ---   --   ---xx   flac  0.5046  205 Set The Controls For The Heart Of The Sun.flac
 8:56.49       94665692 B   ---   --   ---xx   flac  0.5583  206 Blues.flac

112:18.60 1188725068 B 0.5544 (17 files)

Pink Floyd 1988.03.02&03 Definitive Budokan 1988 (Sigma 282)

Pink Floyd
Definitive Budokan 1988
Sigma 282

1988.03.02&03
Budokan
Tokyo, Japan

Audience recordings

Original bootleg discs -> EZ CD Audio Converter -> FLAC level 5
Ripped and shared by Gullveig.org

1988.03.02
101 Shine On You Crazy Diamond
102 Signs Of Life
103 Learning To Fly
104 Yet Another Movie
105 Round And Round
106 A New Machine Part 1
107 Terminal Frost
108 A New Machine Part 2
109 Sorrow
110 The Dogs Of War
111 On The Turning Away
201 One Of These Days
202 Time
203 The Great Gig In The Sky
204 Wish You Were Here
205 Welcome To The Machine
206 Us And Them
207 Money
208 Another Brick In The Wall Part 2
209 Comfortably Numb
301 Audience
302 One Slip
303 Run Like Hell

1988.03.03
401 Shine On You Crazy Diamond
402 Signs Of Life
403 Learning To Fly
404 Yet Another Movie
405 Round And Round
406 A New Machine Part 1
407 Terminal Frost
408 A New Machine Part 2
409 Sorrow
410 The Dogs Of War
411 On The Turning Away
501 One Of These Days
502 Time
503 The Great Gig In The Sky
504 Wish You Were Here
505 Welcome To The Machine
506 Us And Them
507 Money
508 Another Brick In The Wall Part 2
509 Comfortably Numb
601 Audience
602 One Slip
603 Run Like Hell

Download from FileFactory: https://www.filefactory.com/file/3jbi2s6lvs1o/gph0333.rar

Download from mega.nz: https://mega.nz/file/QQQmTBhZ#NpbSYl8DnbgPXpMMBbYZw5bwbeo5Suq_fbitsG3LJ8o

Date prepared: 2022.05.18