Nick Mason’s Saucerful Of Secrets 2022.04.19 Oxford 2022 (Amity 675)

Nick Mason’s Saucerful Of Secrets
Oxford 2022
Amity 675

2022.04.19
New Theatre
Oxford, UK

Audience recording

Original bootleg discs -> EZ CD Audio Converter -> FLAC level 5
Ripped and shared by Gullveig.org

101 Intro
102 One Of These Days
103 Intro
104 Arnold Layne
105 Fearless (False Start)
106 Fearless
107 Obscured By Clouds – When You’re In
108 Candy And A Currant Bun
109 Vegetable Man
110 Lucifer Sam
111 Intro
112 If
113 Atom Heart Mother
114 If (Reprise)
115 Intro
116 Remember A Day
117 Band Introductions
118 Set The Controls For The Heart Of The Sun
201 Intro
202 Interstellar Overdrive
203 Astronomy Domine
204 The Nile Song (False Start)
205 The Nile Song
206 Intro
207 Burning Bridges
208 Childhood’s End
209 Intro
210 See Emily Play
211 Echoes
212 Crowd
213 A Saucerful Of Secrets
214 Bike
215 Outro

Download from FileFactory: https://www.filefactory.com/file/oxwcpyq7jh8/gph0335.rar

Download from mega.nz: https://mega.nz/file/BQBjgDBI#A74GlHeMAmka4QvtVWb0jU_qVVBpb8PTXpoMUN7vItI

Date prepared: 2022.12.20

101 Intro.flac:82ca94eac5b274afa8081850c9ca5128
102 One Of These Days.flac:271648117b0de730c4bad5b2032a2786
103 Intro.flac:ed9a9441409b9f5bf0549e491d1f735a
104 Arnold Layne.flac:5b9453c95d0dfc7ea2640bb07b138cf3
105 Fearless (False Start).flac:6cb2ba8e0ad76df9d91427f6e040b4c8
106 Fearless.flac:412dcc4e308959648513c87894471517
107 Obscured By Clouds – When You’re In.flac:58e929a3bb759e7c4eb3627e79b27c55
108 Candy And A Current Bun.flac:9b8e16dd5c8fdc257a0ba0b6ea58f5a6
109 Vegetable Man.flac:4fcb3ec0f3140141adddd1ce30524b9d
110 Lucifer Sam.flac:c5de5909599da73d2c533ca9bd30ed05
111 Intro.flac:e4dd50b47367d9997f1428dc902c46fd
112 If.flac:f846a6f798b05503e21a6d16c7cd77e0
113 Atom Heart Mother.flac:2c5e7f877b4e9fcfdcf42cf89a6e7350
114 If (Reprise).flac:ab45513af787d2112dcf7906c0b751c6
115 Intro.flac:08bab2804f867b93a6562e0633a6fe5c
116 Remember A Day.flac:92c5e2271980e6925f8d7629a79716bc
117 Band Introductions.flac:07909f21058ad6a7c8459c4d49ee1cb1
118 Set The Controls For The Heart Of The Sun.flac:58806f41c3085884bcbbccb493dbcb8f
201 Intro.flac:abc1f7f9486e2e68ed0668bb95dc817a
202 Interstellar Overdrive.flac:f3bedf6cd3d37f8ee685b32cafb9bad7
203 Astronomy Domine.flac:67e942d9b0c33853fe684191d973eb94
204 The Nile Song (False Start).flac:5682289321bd3e1531b3078999d30a10
205 The Nile Song.flac:d5e986782752d70d15acccc911e0e36c
206 Intro.flac:dfff82ef0e3a78600ac1e67534790ae6
207 Burning Bridges.flac:28ca8f9fbe2ddecb872d3d0547c718c0
208 Childhood’s End.flac:f28efec0c7b7652bc585fd18f360edfb
209 Intro.flac:ecf508440f52ca5ef069319e17d02fae
210 See Emily Play.flac:50f47252511debc533e0fe0d297f19a0
211 Echoes.flac:cbce828d66b0b421ab05ffc92de44360
212 Crowd.flac:608b61bdd4c8960a2d005359c2086d96
213 A Saucerful Of Secrets.flac:ec08d87b8cc8035da2117c70208db382
214 Bike.flac:6b08353fa98d9ef6a25257cce7f3bff0
215 Outro.flac:82b1cb23545615fcbd1699147edefa53

ecd230547252b9cf2e90161010c961d8 *101 Intro.flac
0a0860c31464dd01451965682196c6c5 *102 One Of These Days.flac
fa97d8545bd77b6c2ea9e2a9295112f0 *103 Intro.flac
81ea5e8db3df9b1b7c8a1560bbd1cb17 *104 Arnold Layne.flac
b5284bd2fe1c249fd54ccf895fdae185 *105 Fearless (False Start).flac
74ecd1cb14a36272f3731e268243f9da *106 Fearless.flac
b61bd789b629ec9d5599031ccead33fe *107 Obscured By Clouds – When You’re In.flac
a4645a9613691922a33a97a6125bce92 *108 Candy And A Current Bun.flac
b2edd0eddbf50c3a7782606beffeb7bf *109 Vegetable Man.flac
0fbb95043e1725e42fa103da33968654 *110 Lucifer Sam.flac
67141119a05378ed74681b1fa36a4c06 *111 Intro.flac
5bd88654a22608d4ab9a48713cfb7a02 *112 If.flac
619c82db712907cf40c89107067955d6 *113 Atom Heart Mother.flac
60ac469230a809555b78c45b03c30384 *114 If (Reprise).flac
566268af958597c02c8356563b7e5fed *115 Intro.flac
b147d6cb94890ca6e23f1704340235bd *116 Remember A Day.flac
614fa17e31124d5543bd65db8e42dae8 *117 Band Introductions.flac
4305d1496c852741e3f522b7701e16cf *118 Set The Controls For The Heart Of The Sun.flac
16bc16ca651fb8b900b1b8b3173dda72 *201 Intro.flac
79938a8b6733bc75adfbf4361135816b *202 Interstellar Overdrive.flac
57b0aaa02d0583cc46e58c138c46ed25 *203 Astronomy Domine.flac
860716ee646a92b323a48475c5e0f39e *204 The Nile Song (False Start).flac
b15f9715bcae148395b5a9328a44e2fa *205 The Nile Song.flac
4575ec3eb258a629158615770c5bbcd6 *206 Intro.flac
4dd57324e1f611df07a784c2d0d6e90b *207 Burning Bridges.flac
b2c1b4fc9a32a9849d94c7c5ffe00fca *208 Childhood’s End.flac
92b015eab94a46661b203bfd2459d97c *209 Intro.flac
a7d22821b9553b676c1a3b79473cc3e8 *210 See Emily Play.flac
a2a5c4d73d5ce91a2cc70c4ca40d01b5 *211 Echoes.flac
5a525a01fca0dbad14fd2e1804bafcc0 *212 Crowd.flac
1a5a9fad2c432afe94230d5e352cca78 *213 A Saucerful Of Secrets.flac
1bc4c0691658a6d92cbb188e08e0ec90 *214 Bike.flac
15a8c4e0c340c6d84ef6c6d24b947934 *215 Outro.flac

length     expanded size    cdr  WAVE problems  fmt   ratio  filename
 6:06.50       64680044 B   ---   --   ---xx   flac  0.4203  101 Intro.flac
 6:11.33       65522060 B   ---   --   ---xx   flac  0.5462  102 One Of These Days.flac
 1:42.67       18150428 B   ---   --   ---xx   flac  0.3989  103 Intro.flac
 3:32.52       37519148 B   ---   --   ---xx   flac  0.6052  104 Arnold Layne.flac
 0:22.72        4050188 B   ---   --   ---xx   flac  0.4219  105 Fearless (False Start).flac
 5:23.45       57083084 B   ---   --   ---xx   flac  0.5922  106 Fearless.flac
 6:34.13       69532220 B   ---   --   ---xx   flac  0.5358  107 Obscured By Clouds - When You're In.flac
 2:51.39       30256172 B   ---   --   ---xx   flac  0.6007  108 Candy And A Current Bun.flac
 2:34.47       27276188 B   ---   --   ---xx   flac  0.5764  109 Vegetable Man.flac
 3:29.23       36921740 B   ---   --   ---xx   flac  0.6400  110 Lucifer Sam.flac
 1:28.06       15537356 B   ---   --   ---xx   flac  0.3919  111 Intro.flac
 2:00.27       21231548 B   ---   --   ---xx   flac  0.4057  112 If.flac
 7:48.40       82649324 B   ---   --   ---xx   flac  0.5029  113 Atom Heart Mother.flac
 2:00.40       21262124 B   ---   --   ---xx   flac  0.4112  114 If (Reprise).flac
 0:53.35        9431564 B   ---   --   ---xx   flac  0.4413  115 Intro.flac
 3:42.52       39283148 B   ---   --   ---xx   flac  0.4919  116 Remember A Day.flac
 3:09.56       33471356 B   ---   --   ---xx   flac  0.4474  117 Band Introductions.flac
12:23.45      131171084 B   ---   --   ---xx   flac  0.4184  118 Set The Controls For The Heart Of The Sun.flac
 5:11.31       54933356 B   ---   --   ---xx   flac  0.4306  201 Intro.flac
 5:35.24       59150492 B   ---   --   ---xx   flac  0.5330  202 Interstellar Overdrive.flac
 4:30.17       47668028 B   ---   --   ---xx   flac  0.6125  203 Astronomy Domine.flac
 0:36.28        6416300 B   ---   --   ---xx   flac  0.3841  204 The Nile Song (False Start).flac
 3:32.14       37429772 B   ---   --   ---xx   flac  0.6453  205 The Nile Song.flac
 1:15.48       13342940 B   ---   --   ---xx   flac  0.4486  206 Intro.flac
 3:36.22       38154188 B   ---   --   ---xx   flac  0.5303  207 Burning Bridges.flac
 3:39.43       38732780 B   ---   --   ---xx   flac  0.5776  208 Childhood's End.flac
 1:14.54       13180652 B   ---   --   ---xx   flac  0.4350  209 Intro.flac
 3:56.43       41731580 B   ---   --   ---xx   flac  0.6224  210 See Emily Play.flac
20:29.50      216913244 B   ---   --   ---xx   flac  0.5158  211 Echoes.flac
 2:12.30       23355404 B   ---   --   ---xx   flac  0.5896  212 Crowd.flac
 9:43.25      102900044 B   ---   --   ---xx   flac  0.5014  213 A Saucerful Of Secrets.flac
 2:00.60       21309164 B   ---   --   ---xx   flac  0.6005  214 Bike.flac
 2:45.59       29244812 B   ---   --   ---xx   flac  0.5324  215 Outro.flac

142:37.15 1509491532 B 0.5157 (33 files)

Roger Waters 2022.09.06 Denver 2022 – Roger’s 79th Birthday (Amity 698)

Roger Waters
Denver 2022 – Roger’s 79th Birthday
Amity 698

2022.09.06
Ball Arena
Denver, CO

Audience recording

Original bootleg discs -> EZ CD Audio Converter -> FLAC level 5
Ripped and shared by Gullveig.org

101 Intro
102 Comfortably Numb
103 The Happiest Days Of Our Lives
104 Another Brick In The Wall Part 2
105 Another Brick In The Wall Part 3
106 The Powers That Be
107 The Bravery Of Being Out Of Range
108 MC
109 The Bar
110 MC
111 Have A Cigar
112 Wish You Were Here
113 Shine On You Crazy Diamond (Parts 6-9)
114 Sheep
201 Intro
202 In The Flesh
203 Run Like Hell
204 Deja Vu
205 Is This The Life We Really Want
206 Money
207 Us And Them
208 Any Colour You Like
209 Brain Damage
210 Eclipse
211 MC
212 Two Suns In The Sunset
213 MC
214 The Bar (Reprise)
215 Outside The Wall

Date prepared: 2022.12.19

Download from FileFactory: https://www.filefactory.com/file/7406sheqdy30/gph0334.rar

Download from mega.nz: https://mega.nz/file/lNgTmBAL#tXFeZV4BQGomqjQ3qQrWP-qlOla8IRsX3Gb86Q7QnbQ

101 Intro.flac:0964e78c7be143d210afc2b9e03f9ee1
102 Comfortably Numb.flac:8fade53d4d2a42c6cc266872bd8ba008
103 The Happiest Days Of Our Lives.flac:3c0d7875348bdc5c60034dc0f1902226
104 Another Brick In The Wall Part 2.flac:1c32b7b1f101df5784b2abc1796c61bc
105 Another Brick In The Wall Part 3.flac:ca49b233e373087fe2b55e275cca552d
106 The Powers That Be.flac:d96de2f08793417dffb2f827b44ece3b
107 The Bravery Of Being Out Of Range.flac:0111c9447b94f3a6b8dd89b33737431c
108 MC.flac:b8c81911a464997b072d63bb73a5f2a0
109 The Bar.flac:61455fb79331a0059059e205ddb75c37
110 MC.flac:b7a1998746bb42b4f7c3ad13f18f4232
111 Have A Cigar.flac:04276cf56f9c04ce583b435478c2721c
112 Wish You Were Here.flac:c25dd08216e7fff1dff7d5e05ea00a22
113 Shine On You Crazy Diamond (Parts 6-9).flac:68716bf6731be6b27e8e59d422a2596d
114 Sheep.flac:c1d00d3683b7640ff3f19ef9d1b5b0cb
201 Intro.flac:443afa700740069aa3e45f19061a7f81
202 In The Flesh.flac:5a32b918af5f2bf817cd16b933c33e5b
203 Run Like Hell.flac:3322e5b6a613db69e33b607c17e65d4e
204 Deja Vu.flac:457bbf62bf5f95e77cdb6217df2a7cd6
205 Is This The Life We Really Want.flac:9be841e0514bdf78f38d54bef99574c3
206 Money.flac:751bd27b278987e55943883eee94a0b0
207 Us And Them.flac:7a2b38d01b0ca67a7db55944a91d70d8
208 Any Colour You Like.flac:492ecbac3ff4ccbd1ab09afb7ed8ed0d
209 Brain Damage.flac:093dd004bed3bac6b809df7a3a09e909
210 Eclipse.flac:d59dd36b5123d6f13f4855d09f35f74c
211 MC.flac:511727b3988ac74a98d2fc956bb3ef27
212 Two Suns In The Sunset.flac:c86db4ffe56d2509780374b2227fa42d
213 MC.flac:e4bebab516dd354dc428fa644cec5a5c
214 The Bar (Reprise).flac:d6c2622960c9e93b538d8d21c97d0730
215 Outside The Wall.flac:1dd009de7750119054be03c5c7381947

f11fe107a2467771d8b572f433f2a6b0 *101 Intro.flac
9c9701ca32210c03fee01146c9655f1c *102 Comfortably Numb.flac
9bb1d6bd2c55f517c0084900d763fc05 *103 The Happiest Days Of Our Lives.flac
0ec15e5b554f37745ae797ec4ff70a5c *104 Another Brick In The Wall Part 2.flac
9fa72140954dc705405494c4aabf97d9 *105 Another Brick In The Wall Part 3.flac
e4e925382ccb1a97b9cc0decb6392c7c *106 The Powers That Be.flac
8882d745128ba2dffd2c7fbb65cb5b42 *107 The Bravery Of Being Out Of Range.flac
5d64c433e035ce51b80388414ac7e25e *108 MC.flac
a170d265d76fef627cf022a13b72a1ab *109 The Bar.flac
1a5202ac2c17ee861cf7f9c5a03ddcd6 *110 MC.flac
84290355ca15d4fca890d4e9123f3a19 *111 Have A Cigar.flac
1acecbee71e86ddcd981e0571906ac61 *112 Wish You Were Here.flac
83a213ad82453879ccbaa4940319c28d *113 Shine On You Crazy Diamond (Parts 6-9).flac
b1eef6e8cbe6845c1f519a0d07dfa283 *114 Sheep.flac
b035811080a370a77f1db95bc5ed8e75 *201 Intro.flac
ff9210cf6e842a77813aa2d4a9ed2cdf *202 In The Flesh.flac
cf70a82e1009d6f90dbedbe8906a5b75 *203 Run Like Hell.flac
19d19e908c65899817432fe0b6b99e1d *204 Deja Vu.flac
d62d05c778e3cc2eaad2a7f46c7e4c0c *205 Is This The Life We Really Want.flac
9b21db4880e9cb7d2138fb39b2ed5479 *206 Money.flac
6884db914c6fa32aa3b0cc9cca000442 *207 Us And Them.flac
60c173716b1310dd5cfe472be9c6fe49 *208 Any Colour You Like.flac
89ce9edfd1b73d0bfbc2f1a3cba0f65a *209 Brain Damage.flac
f50dd9eacb010dd168d22248ff9fc68f *210 Eclipse.flac
bdee6ab7239d47e5310db4d96bbb7e42 *211 MC.flac
490649466a26c0119d4bc91ef2f1d111 *212 Two Suns In The Sunset.flac
0eb157cb3cc30d04c91566205692c450 *213 MC.flac
32a4c3a1ff3aed9c82b7b5dfe0f2ba4b *214 The Bar (Reprise).flac
40fca887fb2326992890ded618fcd02e *215 Outside The Wall.flac

length     expanded size    cdr  WAVE problems  fmt   ratio  filename
11:43.70      124173884 B   ---   --   ---xx   flac  0.3941  101 Intro.flac
 9:21.46       99068636 B   ---   --   ---xx   flac  0.4613  102 Comfortably Numb.flac
 1:28.05       15535004 B   ---   --   ---xx   flac  0.5470  103 The Happiest Days Of Our Lives.flac
 2:15.55       23943404 B   ---   --   ---xx   flac  0.5400  104 Another Brick In The Wall Part 2.flac
 1:36.54       17061452 B   ---   --   ---xx   flac  0.5449  105 Another Brick In The Wall Part 3.flac
 4:59.14       52776572 B   ---   --   ---xx   flac  0.5289  106 The Powers That Be.flac
 7:55.25       83848844 B   ---   --   ---xx   flac  0.4976  107 The Bravery Of Being Out Of Range.flac
 2:42.22       28628588 B   ---   --   ---xx   flac  0.4382  108 MC.flac
 4:25.16       46783676 B   ---   --   ---xx   flac  0.4283  109 The Bar.flac
 0:19.35        3433964 B   ---   --   ---xx   flac  0.4470  110 MC.flac
 5:28.22       57910988 B   ---   --   ---xx   flac  0.5599  111 Have A Cigar.flac
 5:07.43       54255980 B   ---   --   ---xx   flac  0.4995  112 Wish You Were Here.flac
 7:59.62       84641468 B   ---   --   ---xx   flac  0.5470  113 Shine On You Crazy Diamond (Parts 6-9).flac
12:09.06      128609756 B   ---   --   ---xx   flac  0.5479  114 Sheep.flac
 3:51.13       40779020 B   ---   --   ---xx   flac  0.4682  201 Intro.flac
 3:51.06       40762556 B   ---   --   ---xx   flac  0.5840  202 In The Flesh.flac
 5:50.64       61890572 B   ---   --   ---xx   flac  0.5734  203 Run Like Hell.flac
 7:42.30       81567404 B   ---   --   ---xx   flac  0.5075  204 Deja Vu.flac
 5:49.24       61620092 B   ---   --   ---xx   flac  0.5083  205 Is This The Life We Really Want.flac
 6:27.72       68436188 B   ---   --   ---xx   flac  0.5539  206 Money.flac
 7:28.41       79123676 B   ---   --   ---xx   flac  0.5404  207 Us And Them.flac
 3:25.13       36192620 B   ---   --   ---xx   flac  0.5439  208 Any Colour You Like.flac
 3:50.40       40666124 B   ---   --   ---xx   flac  0.5277  209 Brain Damage.flac
 4:32.11       48006716 B   ---   --   ---xx   flac  0.5826  210 Eclipse.flac
 6:01.01       63682796 B   ---   --   ---xx   flac  0.4682  211 MC.flac
 6:30.39       68887772 B   ---   --   ---xx   flac  0.5001  212 Two Suns In The Sunset.flac
 2:07.33       22480460 B   ---   --   ---xx   flac  0.4356  213 MC.flac
 4:43.69       50083532 B   ---   --   ---xx   flac  0.3953  214 The Bar (Reprise).flac
 5:12.53       55161500 B   ---   --   ---xx   flac  0.5250  215 Outside The Wall.flac

154:57.09 1640013244 B 0.5056 (29 files)